Kategorie
Ranking
RSS
Programy

Statystyki
Użytkowników:
Zarejestrowanych wczoraj:
Zarejestrowanych dzisiaj:
Torrentów:
Dodanych wczoraj:
Dodanych dzisiaj:
Warezów:
Dodanych wczoraj:
Dodanych dzisiaj:
135,247
92
5
144,495
122
3
11,826
17
4
Ostatnie 30
Popularne
w Styczniu
==Torrent==
Kategoria: Dla Dzieci » Filmy/Bajki


Dodał: electroloader
Data dodania:
2017-01-15 21:55:20
Rozmiar: 697.75 MB
Seedów: 0
Peerów: 0
Pobrano: 242 razy
Kondycja:






Księżniczka łabędzi - The Swan Princess *1994* [DVDRip.XviD] [Dubbing PL]



Księżniczka łabędzi
The Swan Princess (1994)
gatunek: Animacja, Familijny, Baśń
produkcja: USA
premiera: 15 marca 1996 (Polska), 18 listopada 1994 (świat)
reżyseria: Richard Rich
scenariusz: Brian Nissen

http://www.filmweb.pl/film/Ksi%C4%99%C5%BCniczka+%C5%82ab%C4%99dzi-1994-6909

http://www.imdb.com/title/tt0111333/?ref_=fn_al_tt_1

https://fdb.pl/film/15160-ksiezniczka-labedzi



Księżniczka Łabędzi to muzyczny film animowany oparty na klasycznej baśni o Jeziorze Łabędzim. Akcja tej fantastycznej opowieści rozgrywa się w mitycznych czasach, gdy królowie mieszkali we wspaniałych zamkach, ziemię porastały nieprzebyte knieje. Dwoje zakochanych, książę Derek i księżniczka Odetta, zostają rozdzieleni przez złego Rothbarta. Czarownik porywa księżniczkę i zamienia ją w łabędzia. Chce ją poślubić, żeby zostać władcą królestwa. Dobroduszne, zabawne zwierzątka zamieszkujące Jezioro Łabędzie pomagają Odetcie, lecz aby zrzucić złowrogi czar Derek musi udowodnić swą miłość i stanąć do walki z przebiegłym i potężnym Rothbartem. Księżniczka Łabędzi jest filmem pełnym magii i przygód, muzyki i humoru.




Jack Palance...Lord Rothbart (głos)
Michelle Nicastro...Dorosła Księżniczka Odette (głos)
Mark Harelik...Lord Rogers (głos)
Adam Wylie...Młody Książę Derek (głos)
Howard McGillin...Dorosły Książę Derek (głos)
Sandy Duncan...Królowa Uberta (głos)
Steve Vinovich...Puffin (głos)
James Arrington...Szambelan (głos)



Format : AVI
Format/Info : Audio Video Interleave
File size : 697 MiB
Duration : 1h 25mn
Overall bit rate : 1 140 Kbps
Writing application : VirtualDubMod 1.5.10.2 (build 2540/release)
Writing library : VirtualDubMod build 2540/release

Video
ID : 0
Format : MPEG-4 Visual
Format profile : Advanced Simple@L5
Format settings, BVOP : 2
Format settings, QPel : No
Format settings, GMC : No warppoints
Format settings, Matrix : Default (H.263)
Codec ID : XVID
Codec ID/Hint : XviD
Duration : 1h 25mn
Bit rate : 1 002 Kbps
Width : 640 pixels
Height : 336 pixels
Display aspect ratio : 1.905
Frame rate : 25.000 fps
Color space : YUV
Chroma subsampling : 4:2:0
Bit depth : 8 bits
Scan type : Progressive
Compression mode : Lossy
Bits/(Pixel*Frame) : 0.186
Stream size : 613 MiB (88%)
Writing library : XviD 64

Audio
ID : 1
Format : MPEG Audio
Format version : Version 1
Format profile : Layer 3
Mode : Joint stereo
Mode extension : MS Stereo
Codec ID : 55
Codec ID/Hint : MP3
Duration : 1h 25mn
Bit rate mode : Constant
Bit rate : 128 Kbps
Channel(s) : 2 channels
Sampling rate : 48.0 KHz
Compression mode : Lossy
Stream size : 78.3 MiB (11%)
Alignment : Aligned on interleaves
Interleave, duration : 40 ms (1.00 video frame)
Interleave, preload duratio : 504 ms
Writing library : LAME3.98.2ŞŞŞŞŞŞŞŞŞŞ

PS/ POBRALES --------> SEEDUJ /THX/

Lista plików Show/Hide [Pokaż/Ukryj]
Trackery
Tracker URLSeedówPeerówPobrań
http://tracker.devil-torrents.pl/announce000
udp://shadowshq.eddie4.nl:6969/announce000
http://t1.pow7.com/announce000
http://secure.pow7.com/announce000
http://retracker.krs-ix.ru/announce000
http://pow7.com/announce000
udp://tracker.mg64.net:2710/announce000
udp://tracker.eddie4.nl:6969/announce000
udp://shadowshq.yi.org:6969/announce000
http://tracker.tfile.me/announce000
udp://tracker.publicbt.com:80/announce000
http://tracker.mg64.net:6881/announce000
udp://www.eddie4.nl:6969/announce000
udp://tracker.leechers-paradise.org:6969/announce000
http://tracker2.wasabii.com.tw:6969/announce000
udp://9.rarbg.me:2710/announce000
http://tracker.filetracker.pl:8089/announce000
http://tracker.electro-torrent.pl/announce
udp://tracker.openbittorrent.com:80/announce000
http://t2.pow7.com/announce000
Podobne Pliki

Komentarze

Brak komentarzy!

Dodawanie komentarza
Komentujesz torrenta:
Księżniczka łabędzi - The Swan Princess *1994* [DVDRip.XviD] [Dubbing PL]

NAJCZĘŚCIEJ POBIERANE