Kategorie
Ranking
RSS
Programy

Statystyki
Użytkowników:
Zarejestrowanych wczoraj:
Zarejestrowanych dzisiaj:
Torrentów:
Dodanych wczoraj:
Dodanych dzisiaj:
Warezów:
Dodanych wczoraj:
Dodanych dzisiaj:
121,805
36
3
120,601
91
16
8,230
1
0
Ostatnie 30
Popularne
w Czerwcu
==Torrent==
Kategoria: Dla Dzieci » Filmy/Bajki


Dodał: helix5610
Data dodania:
2017-07-27 18:41:13
Rozmiar: 5.87 GB
Seedów: 12
Peerów: 4
Pobrano: 473 razy
Kondycja:






Było sobie życie- Il Était une fois... la vie *1986* [DVDRip] [XViD] [PL DUBB]

...( INFO )...

Gatunek: serial animowany
Kraj produkcji: Francja
Twórcy Albert Barillé
Liczba odcinków 26
Reżyseria: Albert Barillé
Scenariusz: Albert Barillé
Muzyka: Michel Legrand
Czas trwania odcinka: 25 minut



"Było sobie życie" to seria 26 dokumentów pedagogicznych mających na celu
zapoznanie dzieci ze budową i funkcjami organów ludzkiego ciała.
Ten animowany serial pokazuje życie komórek i organizmów, które zamieszkują organizm ludzki. Budowa i rola funkcji życiowych są opisane w bardzo dogodny sposób: mikroorganizmy zyjące w ciele człowieka: krwinki, pokarmy, impulsy nerwowe, hormony, enzymy, chromosomy, wirusy, bakterie, toksyny, przeciwciała są upersonalizowane. Są one prawdziwie świadome, mają swoje osobowości z wadami i zaletami. Dobre są pokazane jako ładne i miłe, a złe jako brzydkie i nieprzyjemne. Świat, w jakim żyją jest podobny do animacji z przyszłości. Wielkie budowle (serce, wątroba, nerka, żołądek,...) są porównywane do maszyn, fabryk lub szlaków komunikacyjnych.

...( DANE TECH )...

Format : AVI
Format/INFO : Audio Video Interleave
File size : 232 MiB
Duration : 25 min 9 s
Overall bit rate mode : Variable
Overall bit rate : 1 290 kb/s
Writing application : VirtualDubMod 1.6.0.0 SURROUND (build 2560/release)
Writing library : VirtualDubMod build 2560/release

Video
ID : 0
Format : MPEG-4 Visual
Format profile : Advanced Simple@L5
Format settings, BVOP : 2
Format settings, QPel : No
Format settings, GMC : No warppoints
Format settings, Matrix : Default (MPEG)
Muxing mode : Packed bitstream
Codec ID : XVID
Codec ID/Hint : XviD
Duration : 25 min 9 s
Bit rate : 1 173 kb/s
Width : 640 pixels
Height : 480 pixels
Display aspect ratio : 4:3
Frame rate : 25.000 FPS
Color space : YUV
Chroma subsampling : 4:2:0
Bit depth : 8 bits
Scan type : Progressive
Compression mode : Lossy
Bits/(Pixel*Frame) : 0.153
Stream size : 211 MiB (91%)
Writing library : XviD 1.2.0.dev47 (UTC 2006-11-01)

Audio
ID : 1
Format : MPEG Audio
Format version : Version 1
Format profile : Layer 3
Mode : Joint stereo
Codec ID : 55
Codec ID/Hint : MP3
Duration : 25 min 9 s
Bit rate mode : Variable
Bit rate : 105 kb/s
Nominal bit rate : 128 kb/s
Channel(s) : 2 channels
Sampling rate : 48.0 kHz
Compression mode : Lossy
Stream size : 18.8 MiB (8%)
Alignment : Aligned on interleaves
Interleave, duration : 24 ms (0.60 video frame)
Interleave, preload duratio : 576 ms
Writing library : LAME3.97b
Encoding settings : -m j -V 4 -q 2 -lowpass 17 --abr 128

Lista plików Show/Hide [Pokaż/Ukryj]
Trackery
Tracker URLSeedówPeerówPobrań
http://tracker.opentrackr.org:1337/announce51159
udp://9.rarbg.com:2710/announce310
udp://9.rarbg.me:2710/announce310
http://atrack.pow7.com:80/announce115
http://tracker.vanitycore.co:6969/announce000
http://ipv4.tracker.harry.lu:80/announce000
http://tracker.skyts.net:6969/announce000
http://tracker.tiny-vps.com:6969/announce000
http://tracker1.wasabii.com.tw:6969/announce000
http://tracker2.wasabii.com.tw:6969/announce000

Komentarze

Brak komentarzy!

Dodawanie komentarza
Komentujesz torrenta:
Było sobie życie- Il Était une fois... la vie *1986* [DVDRip] [XViD] [PL DUBB]

NAJCZĘŚCIEJ POBIERANE