Kategorie
Ranking
RSS
Hosting zapewnia

Google+
Programy

Statystyki
Użytkowników:
Zarejestrowanych wczoraj:
Zarejestrowanych dzisiaj:
Torrentów:
Dodanych wczoraj:
Dodanych dzisiaj:
Warezów:
Dodanych wczoraj:
Dodanych dzisiaj:
69,389
63
42
151,515
94
89
4,886
17
6
Ostatnie 30
Popularne
w Sierpniu
==Torrent==
Kategoria: Filmy XviD/DivX » Fantasy


Dodał: marcin0313
Data dodania:
2017-08-12 22:08:09
Rozmiar: 1.70 GB
Seedów: 59
Peerów: 13
Pobrano: 49 razy
Kondycja:









Mój sąsiad Totoro Tonari no Totoro (1988) .[1080p].[miniHD] [LEKTOR PL][MKV]



FILM Studia Ghibli
Mój sąsiad Totoro (1988)
Tonari no Totoro
1 godz. 25 min.
reżyseria: Hayao Miyazaki
scenariusz: Hayao Miyazaki
gatunek: Familijny Anime
produkcja: Japonia



Film opowiada o dwóch siostrach, Mei (4 lata) i Satsuki (10), które przeprowadzają się wraz z ojcem do starego domu na wsi, aby być bliżej matki leżącej w szpitalu. Satsuki poznaje chłopca z sąsiedztwa o imieniu Kanta (10), który, mimo wcześniejszej antypatii, zaprzyjaźnia się z nią. Pewnego dnia siostry spotykają sympatyczne leśne stworzenia-duchy zwące się Totoro i od tego czasu ich życie zaczyna przepełniać magia. Natura i wyobraźnia pomagają im w potrzebie, ukazując jednocześnie siłę i piękno świata, który ich otacza



Format : Matroska
Format version : Version 4 / Version 2
File size : 1.70 GiB
Duration : 1 h 26 min
Overall bit rate : 2 819 kb/s

Video
Format : AVC
Duration : 1 h 26 min
Bit rate : 2 499 kb/s
Width : 1 920 pixels
Height : 1 024 pixels
Frame rate : 23.976 (23976/1000) FPS
Stream size : 1.51 GiB (89%)

Audio
Format : AC-3
Bit rate : 320 kb/s
Channel(s) : 2 channels
Channel positions : Front: L R
Sampling rate : 48.0 kHz
Frame rate : 31.250 FPS (1536 spf)
Bit depth : 16 bits
Stream size : 198 MiB (11%)

Screen 1:
Screen 1:
Screen 1:
Screen 1:
Lista plikówShow/Hide [Pokaż/Ukryj]
Trackery
Tracker URLSeedówPeerówPobrań
http://tracker.electro-torrent.pl/announce1240
http://tracker.vanitycore.co:6969/announce12335
udp://tracker.opentrackr.org:1337/announce12251
udp://9.rarbg.to:2740/announce12250
udp://tracker.leechers-paradise.org:6969/announce11229
udp://tracker.openbittorrent.com:80/announce000

Komentarze
<< Poprzednia      Następna >>
1 - 1
Przeglądaj
1 - 1
<< Poprzednia      Następna >>
Dodawanie komentarza
Komentujesz torrenta:
Mój sąsiad Totoro Tonari no Totoro (1988) .[1080p].[miniHD] [LEKTOR PL][MKV]

NAJCZĘŚCIEJ POBIERANE

stat4u Najlepsze strony Torrentowe Torrenty