Kategorie
Ranking
RSS
Hosting zapewnia

Google+
Programy

Statystyki
Użytkowników:
Zarejestrowanych wczoraj:
Zarejestrowanych dzisiaj:
Torrentów:
Dodanych wczoraj:
Dodanych dzisiaj:
Warezów:
Dodanych wczoraj:
Dodanych dzisiaj:
74,823
57
2
161,156
120
7
5,695
8
12
Ostatnie 30
Popularne
w Listopadzie
==Torrent==
Kategoria: TV/Seriale » Thriller


Dodał: Lukarusi
Data dodania:
2017-09-13 19:55:31
Rozmiar: 866.96 MB
Seedów: 6
Peerów: 0
Pobrano: 69 razy
Kondycja:









Zoo S03E11 - Cradles and Graves [720p.AMZN.WEB-DL.H.264.AC3] [Lektor PL]



produkcja: USA
gatunek: Thriller, Dramat
reżyseria: Brad Anderson, Michael Katleman, Steven A. Adelson
scenariusz: Josh Appelbaum, Scott Rosenberg, André Nemec
zdjęcia: Anette Haellmigk
muzyka: Chris Tilton
czas trwania: ok. 43 min.



Młody naukowiec próbuje odkryć przyczynę nagłych i brutalnych ataków zwierząt.



James Wolk - Jackson Oz
Kristen Connolly - Jamie Campbell
Nonso Anozie - Abraham Kenyatta
Nora Arnezeder - Chloe Tousignant
Billy Burke - Mitch Morgan



Format : Matroska
Format version : Version 4 / Version 2
File size : 867 MiB
Duration : 43 min 16 s
Overall bit rate mode : Variable
Overall bit rate : 2 801 kb/s
Encoded date : UTC 2017-09-13 17:46:35

Video
ID : 1
Format : AVC
Format/Info : Advanced Video Codec
Format profile : High@L3.1
Format settings, CABAC : Yes
Format settings, RefFrames : 5 frames
Codec ID : V_MPEG4/ISO/AVC
Duration : 43 min 16 s
Bit rate mode : Variable
Bit rate : 2 575 kb/s
Maximum bit rate : 4 500 kb/s
Width : 1 280 pixels
Height : 720 pixels
Display aspect ratio : 16:9
Frame rate mode : Constant
Frame rate : 23.976 (24000/1001) FPS
Color space : YUV
Chroma subsampling : 4:2:0
Bit depth : 8 bits
Scan type : Progressive
Bits/(Pixel*Frame) : 0.117
Stream size : 797 MiB (92%)
Color range : Limited
Color primaries : BT.709
Transfer characteristics : BT.709
Matrix coefficients : BT.709

Audio
ID : 2
Format : AC-3
Format/Info : Audio Coding 3
Format settings, Endianness : Big
Codec ID : A_AC3
Duration : 43 min 16 s
Bit rate mode : Constant
Bit rate : 224 kb/s
Channel(s) : 2 channels
Channel positions : Front: L R
Sampling rate : 48.0 kHz
Frame rate : 31.250 FPS (1536 SPF)
Bit depth : 16 bits
Compression mode : Lossy
Stream size : 69.3 MiB (8%)
Language : Polish
Service kind : Complete Main

Lista plikówShow/Hide [Pokaż/Ukryj]
Trackery
Tracker URLSeedówPeerówPobrań
http://agusiq-torrents.pl:6969/announce100
udp://tracker.leechers-paradise.org:6969/announce100
udp://eddie4.nl:6969/announce100
http://tracker.tfile.me/announce100
http://tracker.torrentyorg.pl/announce100
udp://shadowshq.eddie4.nl:6969/announce100
udp://tracker.glotorrents.com:6969/announce000
udp://poloniumsurfer.tk:6969/announce000
udp://tracker.openbittorrent.com:80/announce000
udp://10.rarbg.com/announce000
udp://sugoi.pomf.se:80/announce000
udp://tracker.pomf.se:80/announce000
http://mgtracker.org:2710/announce000
udp://torrent.gresille.org:80/announce000
udp://9.rarbg.me:2740/announce000
udp://9.rarbg.com:2710/announce000
udp://tracker.publicbt.com/announce000
http://tracker.filetracker.pl:8089/announce000
udp://t1.pow7.com/announce000
udp://tracker.torrentbay.to:6969/announce000
udp://exodus.desync.com:6969/announce000
udp://tracker.istole.it:80/announce000
udp://tracker.prq.to/announce000
http://retracker.omsk.ru:2710/announce

Komentarze

Brak komentarzy!

Dodawanie komentarza
Komentujesz torrenta:
Zoo S03E11 - Cradles and Graves [720p.AMZN.WEB-DL.H.264.AC3] [Lektor PL]

NAJCZĘŚCIEJ POBIERANE

stat4u Najlepsze strony Torrentowe Torrenty