Kategorie
Ranking
RSS
Hosting zapewnia

Google+
Programy

Statystyki
Użytkowników:
Zarejestrowanych wczoraj:
Zarejestrowanych dzisiaj:
Torrentów:
Dodanych wczoraj:
Dodanych dzisiaj:
Warezów:
Dodanych wczoraj:
Dodanych dzisiaj:
74,786
43
22
161,081
105
51
5,675
0
0
Ostatnie 30
Popularne
w Listopadzie
==Torrent==
Kategoria: TV/Seriale » Thriller


Dodał: Lukarusi
Data dodania:
2017-09-13 20:18:51
Rozmiar: 1.29 GB
Seedów: 8
Peerów: 0
Pobrano: 105 razy
Kondycja:









The Sinner S01E06 [720p.AMZN.WEBRip.x264.DD5.1] [Napisy PL]



produkcja: USA
gatunek: Thriller, Dramat
reżyseria: Antonio Campos, Brad Anderson, Jody Lee Lipes
scenariusz: Petra Hammesfahr, Derek Simonds
muzyka: Ronit Kirchman
zdjęcia: Radium Cheung, Jody Lee Lipes
czas trwania: ok. 42 min.



Młoda matka dokonuje zdumiewającego aktu przemocy w miejscu publicznym i ku jej przerażeniu – nie ma pojęcia, dlaczego to zrobiła. Śledczy usiłuje dociec, jaki jest ten głęboko skrywany motyw kobiety. Razem próbują zgłębić jej psychikę i odkryć tajemnice z jej przeszłości związane z przemocą. Wydarzenia łączą się w zaskakujący thriller kryminalny.



Jessica Biel - Cora Tannetti
Bill Pullman - Harry Ambrose
Christopher Abbott - Mason Tannetti
Enid Graham - Elizabeth Lacey
Robert Funaro - Ron Tanetti
Patti D'Arbanville - Lorna Tannetti
Eric Todd - Frankie Belmont
Jacob Berger - Bailiff
Nadia Alexander - Adult Phoebe
Grayson Eddey - Laine Tannetti



Format : Matroska
Format version : Version 4 / Version 2
File size : 1.29 GiB
Duration : 41 min 51 s
Overall bit rate : 4 423 kb/s
Encoded date : UTC 2017-09-13 17:46:57

Video
ID : 1
Format : AVC
Format/Info : Advanced Video Codec
Format profile : High@L4.1
Format settings, CABAC : Yes
Format settings, RefFrames : 9 frames
Codec ID : V_MPEG4/ISO/AVC
Duration : 41 min 51 s
Bit rate : 3 781 kb/s
Width : 1 280 pixels
Height : 720 pixels
Display aspect ratio : 16:9
Frame rate mode : Constant
Frame rate : 23.976 (24000/1001) FPS
Color space : YUV
Chroma subsampling : 4:2:0
Bit depth : 8 bits
Scan type : Progressive
Bits/(Pixel*Frame) : 0.171
Stream size : 1.11 GiB (85%)
Writing library : x264 core 148

Audio
ID : 2
Format : E-AC-3
Format/Info : Enhanced Audio Coding 3
Format settings, Endianness : Big
Codec ID : A_EAC3
Duration : 41 min 51 s
Bit rate mode : Constant
Bit rate : 640 kb/s
Channel(s) : 6 channels
Channel positions : Front: L C R, Side: L R, LFE
Sampling rate : 48.0 kHz
Frame rate : 187.500 FPS (256 SPF)
Compression mode : Lossy
Stream size : 192 MiB (14%)
Language : English
Service kind : Complete Main

Text
ID : 3
Format : UTF-8
Codec ID : S_TEXT/UTF8
Codec ID/Info : UTF-8 Plain Text
Duration : 41 min 20 s
Bit rate : 36 b/s
Count of elements : 443
Stream size : 11.2 KiB (0%)
Language : Polish

Lista plikówShow/Hide [Pokaż/Ukryj]
Trackery
Tracker URLSeedówPeerówPobrań
http://agusiq-torrents.pl:6969/announce100
udp://shadowshq.eddie4.nl:6969/announce100
http://tracker.tfile.me/announce100
udp://eddie4.nl:6969/announce100
udp://tracker.leechers-paradise.org:6969/announce100
udp://9.rarbg.me:2740/announce100
udp://9.rarbg.com:2710/announce100
http://tracker.torrentyorg.pl/announce100
udp://poloniumsurfer.tk:6969/announce000
http://tracker.filetracker.pl:8089/announce000
udp://torrent.gresille.org:80/announce000
udp://tracker.pomf.se:80/announce000
udp://10.rarbg.com/announce000
udp://tracker.openbittorrent.com:80/announce000
udp://sugoi.pomf.se:80/announce000
udp://tracker.glotorrents.com:6969/announce000
http://mgtracker.org:2710/announce000
udp://tracker.istole.it:80/announce000
udp://tracker.prq.to/announce000
udp://exodus.desync.com:6969/announce000
udp://t1.pow7.com/announce000
udp://tracker.publicbt.com/announce000
http://retracker.omsk.ru:2710/announce
udp://tracker.torrentbay.to:6969/announce000

Komentarze

Brak komentarzy!

Dodawanie komentarza
Komentujesz torrenta:
The Sinner S01E06 [720p.AMZN.WEBRip.x264.DD5.1] [Napisy PL]

NAJCZĘŚCIEJ POBIERANE

stat4u Najlepsze strony Torrentowe Torrenty