Kategorie
Ranking
RSS
Hosting zapewnia

Google+
Programy

Statystyki
Użytkowników:
Zarejestrowanych wczoraj:
Zarejestrowanych dzisiaj:
Torrentów:
Dodanych wczoraj:
Dodanych dzisiaj:
Warezów:
Dodanych wczoraj:
Dodanych dzisiaj:
74,786
43
22
161,081
105
51
5,675
0
0
Ostatnie 30
Popularne
w Listopadzie
==Torrent==
Kategoria: TV/Seriale » Thriller


Dodał: Lukarusi
Data dodania:
2017-09-13 22:01:28
Rozmiar: 1.31 GB
Seedów: 8
Peerów: 0
Pobrano: 123 razy
Kondycja:









Mr. Mercedes S01E05 - The Suicide Hour [720p.WEB-DL.H.264.AC3] [Napisy PL]



produkcja: USA
gatunek: Thriller
reżyseria: Jack Bender, John David Coles, Laura Innes
scenariusz: Stephen King, David E. Kelley, Sophie Owens-Bender
zdjęcia: Armando Salas, Yaron Levy
dźwięk: Mark Allen, Jeffree Bloomer
czas trwania: ok. 52 min.



Serial jest oparty na powieści Stephena Kinga pod tym samym tytułem. Fabuła skupia się na mordercy, który dręczy emerytowanego detektywa policyjnego serią listów i maili, zmuszając mężczyznę do rozpoczęcia prywatnej krucjaty. Były policjant chce, by morderca został schwytany, zanim popełni kolejne przestępstwo.



Brendan Gleeson - Bill Hodges
Harry Treadaway - Brady Hartsfield
Kelly Lynch - Deborah Hartsfield
Jharrel Jerome - Jerome Robinson
Ed Anderson - Paulie
Justine Lupe - Holly Gibney
Ziggy Bender - Odell
David Furr - Josh
Lindsay Ayliffe - Art Gibney



Format : Matroska
Format version : Version 4 / Version 2
File size : 1.31 GiB
Duration : 51 min 42 s
Overall bit rate : 3 626 kb/s
Encoded date : UTC 2017-09-13 19:51:14

Video
ID : 1
Format : AVC
Format/Info : Advanced Video Codec
Format profile : High@L3.1
Format settings, CABAC : Yes
Format settings, RefFrames : 4 frames
Codec ID : V_MPEG4/ISO/AVC
Duration : 51 min 42 s
Bit rate mode : Constant
Bit rate : 3 400 kb/s
Nominal bit rate : 4 000 kb/s / 4 000 kb/s
Width : 1 280 pixels
Height : 720 pixels
Display aspect ratio : 16:9
Frame rate mode : Constant
Frame rate : 23.976 (24000/1001) FPS
Color space : YUV
Chroma subsampling : 4:2:0
Bit depth : 8 bits
Scan type : Progressive
Bits/(Pixel*Frame) : 0.154
Stream size : 1.23 GiB (94%)
Writing library : x264 core 148

Audio
ID : 2
Format : AC-3
Format/Info : Audio Coding 3
Format settings, Endianness : Big
Codec ID : A_AC3
Duration : 51 min 42 s
Bit rate mode : Constant
Bit rate : 224 kb/s
Channel(s) : 2 channels
Channel positions : Front: L R
Sampling rate : 48.0 kHz
Frame rate : 31.250 FPS (1536 SPF)
Bit depth : 16 bits
Compression mode : Lossy
Stream size : 82.8 MiB (6%)
Language : English
Service kind : Complete Main

Text
ID : 3
Format : UTF-8
Codec ID : S_TEXT/UTF8
Codec ID/Info : UTF-8 Plain Text
Duration : 47 min 1 s
Bit rate : 52 b/s
Count of elements : 548
Stream size : 18.1 KiB (0%)
Language : Polish

Lista plikówShow/Hide [Pokaż/Ukryj]
Trackery
Tracker URLSeedówPeerówPobrań
http://agusiq-torrents.pl:6969/announce100
udp://shadowshq.eddie4.nl:6969/announce100
http://tracker.tfile.me/announce100
udp://eddie4.nl:6969/announce100
udp://tracker.leechers-paradise.org:6969/announce100
udp://9.rarbg.me:2740/announce100
udp://9.rarbg.com:2710/announce100
http://tracker.torrentyorg.pl/announce100
udp://poloniumsurfer.tk:6969/announce000
http://tracker.filetracker.pl:8089/announce000
udp://torrent.gresille.org:80/announce000
udp://tracker.pomf.se:80/announce000
udp://10.rarbg.com/announce000
udp://tracker.openbittorrent.com:80/announce000
udp://sugoi.pomf.se:80/announce000
udp://tracker.glotorrents.com:6969/announce000
http://mgtracker.org:2710/announce000
udp://tracker.istole.it:80/announce000
udp://tracker.prq.to/announce000
udp://exodus.desync.com:6969/announce000
udp://t1.pow7.com/announce000
udp://tracker.publicbt.com/announce000
http://retracker.omsk.ru:2710/announce
udp://tracker.torrentbay.to:6969/announce000

Komentarze

Brak komentarzy!

Dodawanie komentarza
Komentujesz torrenta:
Mr. Mercedes S01E05 - The Suicide Hour [720p.WEB-DL.H.264.AC3] [Napisy PL]

NAJCZĘŚCIEJ POBIERANE

stat4u Najlepsze strony Torrentowe Torrenty