Kategorie
Ranking
RSS
Hosting zapewnia

Google+
Programy

Statystyki
Użytkowników:
Zarejestrowanych wczoraj:
Zarejestrowanych dzisiaj:
Torrentów:
Dodanych wczoraj:
Dodanych dzisiaj:
Warezów:
Dodanych wczoraj:
Dodanych dzisiaj:
74,786
43
22
161,081
105
51
5,675
0
0
Ostatnie 30
Popularne
w Listopadzie
==Torrent==
Kategoria: TV/Seriale » Komedia


Dodał: Lukarusi
Data dodania:
2017-09-14 07:33:19
Rozmiar: 1.11 GB
Seedów: 8
Peerów: 0
Pobrano: 589 razy
Kondycja:









Ucho Prezesa odc. 18 - Beż żadnego trybu [1080p.WEBRip.H.264.AC3] [PL]



produkcja: PL
gatunek: Komedia
twórca: Robert Górski
reżyseria: Tadeusz Śliwa
czas trwania: ok. 16 min.



Satyryczny serial o polskiej polityce rozgrywa się w wyobrażonym gabinecie prezesa, gdzie pani Basia i Mariusz troszczą się o prezesa, jak tylko potrafią. W każdym odcinku gabinet odwiedzają goście, którzy chcieliby szepnąć coś prezesowi na ucho.



Robert Górski - Prezes Jarosław
Mikołaj Cieślak - Mariusz
Izabela Dąbrowska - pani Basia
Michał Czernecki - prezes telewizji Jacek
Robert Majewski - prezes Rady Mediów Narodowych
Paweł Koślik - prezydent
Wojciech Kalarus - Antoni, minister wojny
Grzegorz Ciągardlak - Misio
Sebastian Stankiewicz - pan Tomek, syn pani Basi
Sebastian Konrad - wicepremier, minister rozwoju
Katarzyna Żak - Jola pielęgniarka
Agnieszka Wosińska - rzecznik Beata
Adam Krawczuk - Adam od PR-u
Magdalena Smalara - Ania, minister edukacji



Format : Matroska
Format version : Version 4 / Version 2
File size : 1.11 GiB
Duration : 15 min 39 s
Overall bit rate : 10.2 Mb/s
Encoded date : UTC 2017-09-14 05:24:23

Video
ID : 1
Format : AVC
Format/Info : Advanced Video Codec
Format profile : Baseline@L4
Format settings, CABAC : No
Format settings, RefFrames : 1 frame
Format settings, GOP : M=1, N=60
Codec ID : V_MPEG4/ISO/AVC
Duration : 15 min 39 s
Bit rate : 9 936 kb/s
Width : 1 920 pixels
Height : 1 080 pixels
Display aspect ratio : 16:9
Frame rate mode : Variable
Frame rate : 29.970 FPS
Color space : YUV
Chroma subsampling : 4:2:0
Bit depth : 8 bits
Scan type : Progressive
Bits/(Pixel*Frame) : 0.160
Stream size : 1.09 GiB (98%)

Audio
ID : 2
Format : AC-3
Format/Info : Audio Coding 3
Format settings, Endianness : Big
Codec ID : A_AC3
Duration : 15 min 39 s
Bit rate mode : Constant
Bit rate : 224 kb/s
Channel(s) : 2 channels
Channel positions : Front: L R
Sampling rate : 48.0 kHz
Frame rate : 31.250 FPS (1536 SPF)
Bit depth : 16 bits
Compression mode : Lossy
Stream size : 25.1 MiB (2%)
Language : Polish
Service kind : Complete Main

Lista plikówShow/Hide [Pokaż/Ukryj]
Trackery
Tracker URLSeedówPeerówPobrań
http://agusiq-torrents.pl:6969/announce100
udp://shadowshq.eddie4.nl:6969/announce100
http://tracker.tfile.me/announce100
udp://eddie4.nl:6969/announce100
udp://tracker.leechers-paradise.org:6969/announce100
udp://9.rarbg.me:2740/announce100
udp://9.rarbg.com:2710/announce100
http://tracker.torrentyorg.pl/announce100
udp://poloniumsurfer.tk:6969/announce000
http://tracker.filetracker.pl:8089/announce000
udp://torrent.gresille.org:80/announce000
udp://tracker.pomf.se:80/announce000
udp://10.rarbg.com/announce000
udp://tracker.openbittorrent.com:80/announce000
udp://sugoi.pomf.se:80/announce000
udp://tracker.glotorrents.com:6969/announce000
http://mgtracker.org:2710/announce000
udp://tracker.istole.it:80/announce000
udp://tracker.prq.to/announce000
udp://exodus.desync.com:6969/announce000
udp://t1.pow7.com/announce000
udp://tracker.publicbt.com/announce000
http://retracker.omsk.ru:2710/announce
udp://tracker.torrentbay.to:6969/announce000

Komentarze

Brak komentarzy!

Dodawanie komentarza
Komentujesz torrenta:
Ucho Prezesa odc. 18 - Beż żadnego trybu [1080p.WEBRip.H.264.AC3] [PL]

NAJCZĘŚCIEJ POBIERANE

stat4u Najlepsze strony Torrentowe Torrenty