Kategorie
Ranking
RSS
Hosting zapewnia

Google+
Programy

Statystyki
Użytkowników:
Zarejestrowanych wczoraj:
Zarejestrowanych dzisiaj:
Torrentów:
Dodanych wczoraj:
Dodanych dzisiaj:
Warezów:
Dodanych wczoraj:
Dodanych dzisiaj:
72,385
44
66
158,239
106
79
5,420
7
0
Ostatnie 30
Popularne
w Październiku
==Torrent==
Kategoria: TV/Seriale » Kryminalny


Dodał: Lukarusi
Data dodania:
2017-10-12 20:02:19
Rozmiar: 3.32 GB
Seedów: 8
Peerów: 0
Pobrano: 74 razy
Kondycja:









Snowfall S01E01-02 [720p.WEB-DL.H.264.AC3] [Lektor PL]



produkcja: USA
gatunek: Kryminał, Dramat
reżyseria: Adil El Arbi, Bilall Fallah, John Singleton
scenariusz: Dave Andron, Eric Amadio, John Singleton
muzyka: Jeff Russo
zdjęcia: Jeffrey Greeley, Robrecht Heyvaert
czas trwania: ok. 50-58 min.



Akcja produkcji rozgrywa się w latach 80. w Los Angeles i opowiada o kokainowej epidemii, która nastąpiła po aferze Iran-Contras. Historia przedstawiona z perspektywy młodego, czarnoskórego chłopca z Compton, meksykańskiego wrestlera i agenta CIA oskarżonego o współpracę z rebeliantami z Contras.



Damson Idris - Franklin Saint
Carter Hudson - Teddy McDonald
Emily Rios - Lucia Villanueva
Sergio Peris-Mencheta - Gustavo "El Oso" Zapata
Juan Javier Cardenas - Alejandro Usteves
Isaiah John - Leon Simmons
Filipe Valle Costa - Pedro Nava
Amin Joseph - Jerome Saint
Michael Hyatt - Cissy Saint
Angela Lewis - Aunt Louie
Malcolm M. Mays - Kevin Hamilton
José Zúñiga - Ramiro
Craig Tate - Lenny
Peta Sergeant - Jules
Alon Aboutboul - Avi Drexler



Format : Matroska
Format version : Version 4 / Version 2
File size : 1.77 GiB
Duration : 57 min 49 s
Overall bit rate : 4 392 kb/s
Encoded date : UTC 2017-10-12 17:38:53

Video
ID : 1
Format : AVC
Format/Info : Advanced Video Codec
Format profile : High@L3.1
Format settings, CABAC : No
Format settings, RefFrames : 2 frames
Codec ID : V_MPEG4/ISO/AVC
Duration : 57 min 49 s
Bit rate : 4 006 kb/s
Width : 1 280 pixels
Height : 718 pixels
Display aspect ratio : 16:9
Frame rate mode : Constant
Frame rate : 23.976 (24000/1001) FPS
Color space : YUV
Chroma subsampling : 4:2:0
Bit depth : 8 bits
Scan type : Progressive
Bits/(Pixel*Frame) : 0.182
Stream size : 1.62 GiB (91%)
Color range : Limited
Color primaries : BT.709
Transfer characteristics : BT.709
Matrix coefficients : BT.709

Audio
ID : 2
Format : AC-3
Format/Info : Audio Coding 3
Format settings, Endianness : Big
Codec ID : A_AC3
Duration : 57 min 49 s
Bit rate mode : Constant
Bit rate : 384 kb/s
Channel(s) : 2 channels
Channel positions : Front: L R
Sampling rate : 48.0 kHz
Frame rate : 31.250 FPS (1536 SPF)
Bit depth : 16 bits
Compression mode : Lossy
Stream size : 159 MiB (9%)
Language : Polish
Service kind : Complete Main

Lista plikówShow/Hide [Pokaż/Ukryj]
Trackery
Tracker URLSeedówPeerówPobrań
http://agusiq-torrents.pl:6969/announce100
udp://shadowshq.eddie4.nl:6969/announce100
http://tracker.tfile.me/announce100
udp://eddie4.nl:6969/announce100
udp://tracker.leechers-paradise.org:6969/announce100
udp://9.rarbg.me:2740/announce100
udp://9.rarbg.com:2710/announce100
http://tracker.torrentyorg.pl/announce100
udp://poloniumsurfer.tk:6969/announce000
http://tracker.filetracker.pl:8089/announce000
udp://torrent.gresille.org:80/announce000
udp://tracker.pomf.se:80/announce000
udp://10.rarbg.com/announce000
udp://tracker.openbittorrent.com:80/announce000
udp://sugoi.pomf.se:80/announce000
udp://tracker.glotorrents.com:6969/announce000
http://mgtracker.org:2710/announce000
udp://tracker.istole.it:80/announce000
udp://tracker.prq.to/announce000
udp://exodus.desync.com:6969/announce000
udp://t1.pow7.com/announce000
udp://tracker.publicbt.com/announce000
http://retracker.omsk.ru:2710/announce
udp://tracker.torrentbay.to:6969/announce000

Komentarze
<< Poprzednia      Następna >>
1 - 1
  • Napisano dnia 2017-10-14 07:26:22 GMT- [Raport]- [Odpowiedz]
    vwccdsg
    dzieki

    zapowiada sie dosc dobrze, fajny lekki i wciagajacy

    jak cos to prosze o dalsze odcinki
Przeglądaj
1 - 1
<< Poprzednia      Następna >>
Dodawanie komentarza
Komentujesz torrenta:
Snowfall S01E01-02 [720p.WEB-DL.H.264.AC3] [Lektor PL]

NAJCZĘŚCIEJ POBIERANE

stat4u Najlepsze strony Torrentowe Torrenty