Kategorie
Ranking
RSS
Hosting zapewnia

Google+
Programy

Statystyki
Użytkowników:
Zarejestrowanych wczoraj:
Zarejestrowanych dzisiaj:
Torrentów:
Dodanych wczoraj:
Dodanych dzisiaj:
Warezów:
Dodanych wczoraj:
Dodanych dzisiaj:
74,631
102
30
160,841
100
67
5,667
4
4
Ostatnie 30
Popularne
w Listopadzie
==Torrent==
Kategoria: TV/Seriale » Kryminalny


Dodał: Lukarusi
Data dodania:
2017-11-14 17:15:08
Rozmiar: 1.37 GB
Seedów: 121
Peerów: 137
Pobrano: 82 razy
Kondycja:









Gotham S04E08 - A Dark Knightː Stop Hitting Yourself [720p.WEB-DL.H.264.DD5.1] [Napisy PL]



produkcja: USA
gatunek: Kryminał, Dramat
scenariusz: Bruno Heller, Bill Finger, Bob Kane
reżyseria: Danny Cannon, T.J. Scott, Eagle Egilsson
zdjęcia: Chris Norr, Crescenzo G.P. Notarile
muzyka: David E. Russo, Graeme Revell
czas trwania: ok. 44 min.



James Gordon jest synem byłego prokuratora okręgowego, a obecnie początkującym detektywem w policji miasta Gotham City, na czele której stoi kapitan Sara Essen. Zaręczony z Barbarą Kean policjant chce przywrócić miasto do czasów jakie znał z dzieciństwa. Zostaje on przydzielony do twardego i zuchwałego Harveya Bullocka. Obaj muszą rozwikłać sprawę, która wstrząsnęła miastem, jaką było brutalne morderstwo małżeństwa miejscowych milionerów, Thomasa i Marthy Wayne. Na miejscu zbrodni Gordon poznaje 12-letniego syna Wayne'ów, Bruce'a, który przeżył napad i był świadkiem całego zdarzenia. Młody detektyw nawiązuje więź z chłopcem i poruszony jego stratą przysięga, że odnajdzie sprawcę śmierci jego rodziców. Odtąd jedynym opiekunem Bruce'a zostaje lokaj rodziny Wayne'ów - Alfred, zaś Gordon balansując na granicy prawa musi stawić czoła szefowej gangu Fish Mooney. W trakcie śledztwa przyjdzie mu też spotkać szereg innych osób, które w przyszłości staną się superzłoczyńcami. Przyjaźń Gordona i osieroconego dziedzica fortuny Wayne'ów potrwa przez lata i będzie miała wpływ na decyzję chłopca o zostaniu mścicielem.



Ben McKenzie - James Gordon
Donal Logue - Harvey Bullock
Robin Lord Taylor - Oswald Cobblepot
Erin Richards - Barbara Kean
Sean Pertwee - Alfred Pennyworth
Jada Pinkett Smith - Fish Mooney
David Mazouz - Bruce Wayne
Carmen Bicondova - Selina Kyle
Cory Michael Smith - Edward Nygma
Michael Chiklis - Nathaniel Barnes
Nicholas D'Agosto - Harvey Dent
Chris Chalk - Lucius Fox



Format : Matroska
Format version : Version 4 / Version 2
File size : 1.37 GiB
Duration : 43 min 59 s
Overall bit rate : 4 446 kb/s
Encoded date : UTC 2017-11-14 16:04:57

Video
ID : 1
Format : AVC
Format/Info : Advanced Video Codec
Format profile : High@L3.1
Format settings, CABAC : No
Format settings, RefFrames : 2 frames
Codec ID : V_MPEG4/ISO/AVC
Duration : 43 min 59 s
Bit rate : 4 060 kb/s
Width : 1 280 pixels
Height : 718 pixels
Display aspect ratio : 16:9
Frame rate mode : Constant
Frame rate : 23.976 (23976/1000) FPS
Color space : YUV
Chroma subsampling : 4:2:0
Bit depth : 8 bits
Scan type : Progressive
Bits/(Pixel*Frame) : 0.184
Stream size : 1.25 GiB (91%)
Color range : Limited
Color primaries : BT.709
Transfer characteristics : BT.709
Matrix coefficients : BT.709

Audio
ID : 2
Format : AC-3
Format/Info : Audio Coding 3
Format settings, Endianness : Big
Codec ID : A_AC3
Duration : 43 min 59 s
Bit rate mode : Constant
Bit rate : 384 kb/s
Channel(s) : 6 channels
Channel positions : Front: L C R, Side: L R, LFE
Sampling rate : 48.0 kHz
Frame rate : 31.250 FPS (1536 SPF)
Bit depth : 16 bits
Compression mode : Lossy
Stream size : 121 MiB (9%)
Language : English
Service kind : Complete Main

Text
ID : 3
Format : UTF-8
Codec ID : S_TEXT/UTF8
Codec ID/Info : UTF-8 Plain Text
Duration : 42 min 55 s
Bit rate : 49 b/s
Count of elements : 526
Stream size : 15.5 KiB (0%)
Language : Polish

Lista plikówShow/Hide [Pokaż/Ukryj]
Trackery
Tracker URLSeedówPeerówPobrań
http://agusiq-torrents.pl:6969/announce322791
http://tracker.torrentyorg.pl/announce24290
udp://eddie4.nl:6969/announce212776
udp://shadowshq.eddie4.nl:6969/announce212776
udp://tracker.leechers-paradise.org:6969/announce212776
udp://9.rarbg.me:2740/announce100
udp://9.rarbg.com:2710/announce100
udp://poloniumsurfer.tk:6969/announce000
http://tracker.filetracker.pl:8089/announce000
udp://torrent.gresille.org:80/announce000
udp://tracker.pomf.se:80/announce000
udp://10.rarbg.com/announce000
udp://tracker.openbittorrent.com:80/announce000
udp://sugoi.pomf.se:80/announce000
udp://tracker.glotorrents.com:6969/announce000
http://mgtracker.org:2710/announce000
udp://exodus.desync.com:6969/announce000
udp://tracker.istole.it:80/announce000
udp://tracker.prq.to/announce000
udp://t1.pow7.com/announce000
http://retracker.omsk.ru:2710/announce
udp://tracker.torrentbay.to:6969/announce000
udp://tracker.publicbt.com/announce000
http://tracker.tfile.me/announce

Komentarze

Brak komentarzy!

Dodawanie komentarza
Komentujesz torrenta:
Gotham S04E08 - A Dark Knightː Stop Hitting Yourself [720p.WEB-DL.H.264.DD5.1] [Napisy PL]

NAJCZĘŚCIEJ POBIERANE

stat4u Najlepsze strony Torrentowe Torrenty