Kategorie
Ranking
RSS
Hosting zapewnia

Google+
Programy

Statystyki
Użytkowników:
Zarejestrowanych wczoraj:
Zarejestrowanych dzisiaj:
Torrentów:
Dodanych wczoraj:
Dodanych dzisiaj:
Warezów:
Dodanych wczoraj:
Dodanych dzisiaj:
74,631
102
30
160,841
100
67
5,667
4
4
Ostatnie 30
Popularne
w Listopadzie
==Torrent==
Kategoria: TV/Seriale » Horror


Dodał: Lukarusi
Data dodania:
2017-11-14 18:37:24
Rozmiar: 1.48 GB
Seedów: 83
Peerów: 58
Pobrano: 49 razy
Kondycja:









Z Nation S04E07 - Warren's Wedding [720p.AMZN.WEB-DL.H.264.DD5.1] [Napisy PL]



produkcja: USA
gatunek: Horror
reżyseria: John Hyams, Abram Cox, Dan Merchant
scenariusz: Karl Schaefer, Craig Engler, Jennifer Derwingson
zdjęcia: Alexander Yellen, Federico Verardi
muzyka: Jason Gallagher
czas trwania: ok. 42 min.



Fabuła skupia się na grupie osób ocalałych po apokalipsie zombie, którzy wyruszają w podróż przez Stany Zjednoczone wraz z cennym "ładunkiem" i ostatnią szansą na lekarstwo - jedynym człowiekiem, który przeżył ugryzienie zombie i nie został przemieniony.



Keith Allan - Murphy
Kellita Smith - Lt. Roberta Warren
Nat Zang - 10K
Anastasia Baranova - Addy
Russell Hodgkinson - Doc
Pisay Pao - Cassandra
Natalie Jongjaroenlarp - Red
Holden Goyette - Nature Boy/5K
Frank Boyd - Doctor Teller



Format : Matroska
Format version : Version 4 / Version 2
File size : 1.48 GiB
Duration : 42 min 9 s
Overall bit rate mode : Variable
Overall bit rate : 5 025 kb/s
Encoded date : UTC 2017-11-14 17:21:55

Video
ID : 1
Format : AVC
Format/Info : Advanced Video Codec
Format profile : High@L3.1
Format settings, CABAC : Yes
Format settings, RefFrames : 5 frames
Codec ID : V_MPEG4/ISO/AVC
Duration : 42 min 9 s
Bit rate mode : Variable
Bit rate : 4 383 kb/s
Maximum bit rate : 4 500 kb/s
Width : 1 280 pixels
Height : 720 pixels
Display aspect ratio : 16:9
Frame rate mode : Constant
Frame rate : 23.976 (24000/1001) FPS
Color space : YUV
Chroma subsampling : 4:2:0
Bit depth : 8 bits
Scan type : Progressive
Bits/(Pixel*Frame) : 0.198
Stream size : 1.29 GiB (87%)
Color range : Limited
Color primaries : BT.709
Transfer characteristics : BT.709
Matrix coefficients : BT.709

Audio
ID : 2
Format : E-AC-3
Format/Info : Enhanced Audio Coding 3
Format settings, Endianness : Big
Codec ID : A_EAC3
Duration : 42 min 9 s
Bit rate mode : Constant
Bit rate : 640 kb/s
Channel(s) : 6 channels
Channel positions : Front: L C R, Side: L R, LFE
Sampling rate : 48.0 kHz
Frame rate : 187.500 FPS (256 SPF)
Compression mode : Lossy
Stream size : 193 MiB (13%)
Language : English
Service kind : Complete Main

Text
ID : 3
Format : UTF-8
Codec ID : S_TEXT/UTF8
Codec ID/Info : UTF-8 Plain Text
Duration : 41 min 43 s
Bit rate : 50 b/s
Count of elements : 531
Stream size : 15.5 KiB (0%)
Language : Polish

Lista plikówShow/Hide [Pokaż/Ukryj]
Trackery
Tracker URLSeedówPeerówPobrań
udp://tracker.leechers-paradise.org:6969/announce14556
udp://eddie4.nl:6969/announce14556
udp://shadowshq.eddie4.nl:6969/announce14556
http://tracker.torrentyorg.pl/announce1130
http://agusiq-torrents.pl:6969/announce103022
udp://9.rarbg.me:2740/announce10545
udp://9.rarbg.com:2710/announce10545
udp://poloniumsurfer.tk:6969/announce000
http://tracker.filetracker.pl:8089/announce000
udp://torrent.gresille.org:80/announce000
udp://tracker.pomf.se:80/announce000
udp://10.rarbg.com/announce000
udp://tracker.openbittorrent.com:80/announce000
udp://sugoi.pomf.se:80/announce000
udp://tracker.glotorrents.com:6969/announce000
http://mgtracker.org:2710/announce000
udp://exodus.desync.com:6969/announce000
udp://tracker.istole.it:80/announce000
udp://tracker.prq.to/announce000
udp://t1.pow7.com/announce000
http://retracker.omsk.ru:2710/announce
udp://tracker.torrentbay.to:6969/announce000
udp://tracker.publicbt.com/announce000
http://tracker.tfile.me/announce

Komentarze

Brak komentarzy!

Dodawanie komentarza
Komentujesz torrenta:
Z Nation S04E07 - Warren's Wedding [720p.AMZN.WEB-DL.H.264.DD5.1] [Napisy PL]

NAJCZĘŚCIEJ POBIERANE

stat4u Najlepsze strony Torrentowe Torrenty