Kategorie
Ranking
RSS
Hosting zapewnia

Google+
Programy

Statystyki
Użytkowników:
Zarejestrowanych wczoraj:
Zarejestrowanych dzisiaj:
Torrentów:
Dodanych wczoraj:
Dodanych dzisiaj:
Warezów:
Dodanych wczoraj:
Dodanych dzisiaj:
74,631
102
30
160,841
100
67
5,667
4
4
Ostatnie 30
Popularne
w Listopadzie
==Torrent==
Kategoria: TV/Seriale » Komedia


Dodał: Lukarusi
Data dodania:
2017-11-14 19:19:05
Rozmiar: 786.16 MB
Seedów: 107
Peerów: 96
Pobrano: 59 razy
Kondycja:









The Big Bang Theory S11E07 - The Geology Methodology [1080p.WEB-DL.H.264.DD5.1] [Napisy PL]



produkcja: USA
gatunek: Komedia
twórca: Chuck Lorre, Bill Prady, Steven Molaro
muzyka: Barenaked Ladies, Benson Taylor
zdjęcia: Steven V. Silver
czas trwania: ok. 19 min.



Fizycy Leonard i Sheldon rozumieją wszystko począwszy od nieuchronnego przyciągania czarnej dziury, a skończywszy na skomplikowanej budowie atomu. Ale jeśli złożycie te atomy w kobietę, wtedy ich rozumowanie nagle się kończy. A kiedy Penny, kobieta ze wszystkimi atomami we właściwym miejscu, wprowadza się do mieszkania naprzeciwko, wszechświat Leonarda i Sheldona zaczyna się rozszerzać do rozmiarów, których nigdy nie podejrzewali.



Johnny Galecki - Leonard Hofstadter
Jim Parsons - Sheldon Cooper
Kaley Cuoco - Penny
Simon Helberg - Howard Wolowitz
Kunal Nayyar - Rajesh Koothrappali



Format : Matroska
Format version : Version 4 / Version 2
File size : 786 MiB
Duration : 19 min 35 s
Overall bit rate : 5 608 kb/s
Encoded date : UTC 2017-11-14 17:59:10

Video
ID : 1
Format : AVC
Format/Info : Advanced Video Codec
Format profile : High@L4
Format settings, CABAC : Yes
Format settings, RefFrames : 4 frames
Codec ID : V_MPEG4/ISO/AVC
Duration : 19 min 35 s
Bit rate : 5 222 kb/s
Width : 1 912 pixels
Height : 1 072 pixels
Display aspect ratio : 16:9
Frame rate mode : Constant
Frame rate : 23.976 (24000/1001) FPS
Color space : YUV
Chroma subsampling : 4:2:0
Bit depth : 8 bits
Scan type : Progressive
Bits/(Pixel*Frame) : 0.106
Stream size : 732 MiB (93%)
Color range : Limited
Color primaries : BT.709
Transfer characteristics : BT.709
Matrix coefficients : BT.709

Audio
ID : 2
Format : AC-3
Format/Info : Audio Coding 3
Format settings, Endianness : Big
Codec ID : A_AC3
Duration : 19 min 35 s
Bit rate mode : Constant
Bit rate : 384 kb/s
Channel(s) : 6 channels
Channel positions : Front: L C R, Side: L R, LFE
Sampling rate : 48.0 kHz
Frame rate : 31.250 FPS (1536 SPF)
Bit depth : 16 bits
Compression mode : Lossy
Stream size : 53.8 MiB (7%)
Language : English
Service kind : Complete Main

Text
ID : 3
Format : UTF-8
Codec ID : S_TEXT/UTF8
Codec ID/Info : UTF-8 Plain Text
Duration : 18 min 44 s
Bit rate : 74 b/s
Count of elements : 355
Stream size : 10.3 KiB (0%)
Language : Polish

Lista plikówShow/Hide [Pokaż/Ukryj]
Trackery
Tracker URLSeedówPeerówPobrań
http://agusiq-torrents.pl:6969/announce222247
udp://shadowshq.eddie4.nl:6969/announce211732
udp://eddie4.nl:6969/announce211732
udp://tracker.leechers-paradise.org:6969/announce211732
http://tracker.torrentyorg.pl/announce20230
udp://9.rarbg.me:2740/announce100
udp://9.rarbg.com:2710/announce100
udp://poloniumsurfer.tk:6969/announce000
http://tracker.filetracker.pl:8089/announce000
udp://torrent.gresille.org:80/announce000
udp://tracker.pomf.se:80/announce000
udp://10.rarbg.com/announce000
udp://tracker.openbittorrent.com:80/announce000
udp://sugoi.pomf.se:80/announce000
udp://tracker.glotorrents.com:6969/announce000
http://mgtracker.org:2710/announce000
udp://exodus.desync.com:6969/announce000
udp://tracker.istole.it:80/announce000
udp://tracker.prq.to/announce000
udp://t1.pow7.com/announce000
http://retracker.omsk.ru:2710/announce
udp://tracker.torrentbay.to:6969/announce000
udp://tracker.publicbt.com/announce000
http://tracker.tfile.me/announce

Komentarze
<< Poprzednia      Następna >>
1 - 1
  • Napisano dnia 2017-11-15 02:38:38 GMT- [Raport]- [Odpowiedz]
    thon
    To jest wstawka mogąca stanowić wzór - dobra jakość, napisy wmuksowane a nie hardsubowane.
Przeglądaj
1 - 1
<< Poprzednia      Następna >>
Dodawanie komentarza
Komentujesz torrenta:
The Big Bang Theory S11E07 - The Geology Methodology [1080p.WEB-DL.H.264.DD5.1] [Napisy PL]

NAJCZĘŚCIEJ POBIERANE

stat4u Najlepsze strony Torrentowe Torrenty