Kategorie
Ranking
RSS
Hosting zapewnia

Google+
Programy

Statystyki
Użytkowników:
Zarejestrowanych wczoraj:
Zarejestrowanych dzisiaj:
Torrentów:
Dodanych wczoraj:
Dodanych dzisiaj:
Warezów:
Dodanych wczoraj:
Dodanych dzisiaj:
76,037
50
1
163,612
89
7
5,741
0
0
Ostatnie 30
Popularne
w Grudniu
==Torrent==
Kategoria: TV/Seriale » Dramat historyczny


Dodał: Heisenberg
Data dodania:
2017-12-07 09:22:10
Rozmiar: 1.02 GB
Seedów: 5646
Peerów: 1790
Pobrano: 151 razy
Kondycja:









Wikingowie - Vikings.S05E03.720p.HDTV.x264-KILLERS [ENG]



Produkcja: Irlandia, Kanada
Gatunek: Dramat historyczny
Twórca: Michael Hirst
Zdjęcia: John S. Bartley
Muzyka: Trevor Morris



YouTube - Trailer
https://www.youtube.com/watch?v=Ts_8uk1ddJI



XI wiek. Młody wojownik Ragnar Lothbrok (Travis Fimmel) służy jarlowi Earlowi Haraldsonowi (Gabriel Byrne). Mężczyzna pragnie zdobyć nieodkryte jak dotąd przez wikingów ziemie na zachodzie. Nie podobają mu się decyzje podejmowane przez wodza, który co roku wysyła swoich podwładnych na rabunkowe wyprawy do krain zamieszkałych przez Bałtów i Słowian. W jego działaniach wspierają go oddany przyjaciel, rzemieślnik Floki (Gustaf Skarsgard), brat Rollo (Clive Standen) oraz żona Lagertha (Katheryn Winnick). Oparta na faktach historia owianego legendą nordyckiego wodza.

Ragnar udaje się do Gotlandii, aby zakończyć konflikt o sporną ziemię. Rozpoczyna negocjacje z jarlem Borgiem. Ambitny i kierowany zazdrością Rollo staje przeciwko Lothbrokowi. Tymczasem mieszkańcy Kattegat padają ofiarą epidemii. Umierają m.in. Gyda oraz córka Siggy, Thyri. Lokalna ludność prosi Lagerthę, aby pomogła przebłagać bogów.



Travis Fimmel - Ragnar Lothbrok
Katheryn Winnick - Lagertha Lothbrok
Clive Standen - Rollo
Gabriel Byrne - Earl Haraldson
Jessalyn Gilsig - Siggy Haraldson



Video
ID : 1
Format : AVC
Format/Info : Advanced Video Codec
Format profile : High@L4.1
Format settings : CABAC / 5 Ref Frames
Format settings, CABAC : Yes
Format settings, RefFrames : 5 frames
Codec ID : V_MPEG4/ISO/AVC
Duration : 43 min 33 s
Bit rate : 2 899 kb/s
Width : 1 280 pixels
Height : 718 pixels
Display aspect ratio : 16:9
Frame rate mode : Constant
Frame rate : 23.976 (24000/1001) FPS
Color space : YUV
Chroma subsampling : 4:2:0
Bit depth : 8 bits
Scan type : Progressive
Bits/(Pixel*Frame) : 0.132
Stream size : 903 MiB (87%)
Writing library : x264 core 152 r2851 ba24899
Encoding settings : cabac=1 / ref=5 /
Default : Yes
Forced : No
Color range : Limited
Matrix coefficients : BT.709

Audio
ID : 2
Format : AC-3
Format/Info : Audio Coding 3
Format settings, Endianness : Big
Codec ID : A_AC3
Duration : 43 min 33 s
Bit rate mode : Constant
Bit rate : 384 kb/s
Channel(s) : 6 channels
Channel positions : Front: L C R, Side: L R, LFE
Sampling rate : 48.0 kHz
Frame rate : 31.250 FPS (1536 SPF)
Bit depth : 16 bits
Compression mode : Lossy
Stream size : 120 MiB (11%)
Service kind : Complete Main
Default : Yes
Forced : No

Lista plikówShow/Hide [Pokaż/Ukryj]
Trackery
Tracker URLSeedówPeerówPobrań
udp://9.rarbg.to:2710/announce282389519190
udp://9.rarbg.me:2710/announce282389519190
http://tracker.trackerfix.com:80/announce000
Podobne Pliki

Komentarze

Brak komentarzy!

Dodawanie komentarza
Komentujesz torrenta:
Wikingowie - Vikings.S05E03.720p.HDTV.x264-KILLERS [ENG]

NAJCZĘŚCIEJ POBIERANE

stat4u Najlepsze strony Torrentowe Torrenty