Angelika wśród piratów - Indomptable Angélique (1967)[BRRip.x264 Dual Audio AC3/DTS[Lektor i napisy PL][Fre]
Kategorie
Ranking
RSS
Programy

Statystyki
Użytkowników:
Zarejestrowanych wczoraj:
Zarejestrowanych dzisiaj:
Torrentów:
Dodanych wczoraj:
Dodanych dzisiaj:
Warezów:
Dodanych wczoraj:
Dodanych dzisiaj:
111,279
66
1
217,493
100
1
14,166
13
0
Ostatnie 30
Popularne
w Sierpniu
==Torrent==
Kategoria: BluRay/x264 720p » Przygodowy


Dodał: alE13
Data dodania:
2014-03-25 08:29:19
Rozmiar: 3.94 GB
Seedów: 0
Peerów: 16
Pobrano: 11 razy
Kondycja:









Angelika wśród piratów - Indomptable Angélique (1967)[BRRip.x264 Dual Audio AC3/DTS[Lektor i napisy PL][Fre]

http://www.filmweb.pl/film/Angelika+w%C5%9Br%C3%B3d+pirat%C3%B3w-1967-97099#

http://www.imdb.com/title/tt0061819/

reżyseria: Bernard Borderie
scenariusz: Pascal Jardin, Francis Cosne
premiera: 27 października 1967 (Świat) 1967-10-27
produkcja: Francja, Włochy, RFN
gatunek: Kostiumowy, Przygodowy, Romans
czas: 01:23:03

opis:

In the fourth of the Angélique series, the heroine sets sail in hopes of discovering the truth about a man she once loved and lost.

W czwartej części filmu Angelika wyrusza królewską galerą w poszukiwaniu swojego męża. W czasie podróży,
statek staje się łupem piratów, którym przewodzi hrabia Joffrey de Peyrac. Jednak markiza wpada do morza
i ślad po niej ginie. Wyławia ją Escrainville, handlarz niewolników, który sprzedaje ją na targu. Kupcem
okazuje się Joffrey. Jednak ich szczęście nie trwa długo, ponieważ Angelikę ponownie porywa Escrainville.
Hrabia rusza w pościg. Czy uda mu się odnaleźć piękną Angelikę?

http://i.imgur.com/88l1Aus.jpg

obsada:

Michele Mercier , Robert Hossein , Sieghardt Rupp , Christian Rode

dane techniczne:

Indomptable Angelique (1967)-alE13.mkv
Format                  : Matroska
Format version              : Version 4 / Version 2
File size                : 3.94 GiB
Duration                 : 1h 23mn
Overall bit rate mode          : Variable
Overall bit rate             : 6 789 Kbps
Movie name                : Indomptable Angélique (1967)_Rip.-alE13
Encoded date               : UTC 2014-03-25 06:45:27
Writing application           : mkvmerge v6.7.0
Writing library             : libebml v1.3.0 + libmatroska v1.4.1

Video
ID                    : 1
Format                  : AVC
Format/Info               : Advanced Video Codec
Format profile              : High@L4.0
Format settings, CABAC          : Yes
Format settings, ReFrames        : 2 frames
Codec ID                 : V_MPEG4/ISO/AVC
Duration                 : 1h 23mn
Bit rate                 : 4 454 Kbps
Width                  : 1 920 pixels
Height                  : 1 080 pixels
Display aspect ratio           : 16:9
Frame rate mode             : Constant
Frame rate                : 25.000 fps
Color space               : YUV
Chroma subsampling            : 4:2:0
Bit depth                : 8 bits
Scan type                : Progressive
Bits/(Pixel*Frame)            : 0.086
Stream size               : 2.66 GiB (67%)
Title                  : Indomptable Angelique (1967)_Rip.-alE13
Writing library             : x264 core 129

Audio #1
ID                    : 2
Format                  : AC-3
Format/Info               : Audio Coding 3
Mode extension              : CM (complete main)
Format settings, Endianness       : Big
Codec ID                 : A_AC3
Duration                 : 1h 23mn
Bit rate mode              : Constant
Bit rate                 : 512 Kbps
Channel(s)                : 2 channels
Channel positions            : Front: L R
Sampling rate              : 48.0 KHz
Bit depth                : 16 bits
Compression mode             : Lossy
Delay relative to video         : 44s 500ms
Stream size               : 304 MiB (8%)
Title                  : Indomptable Angelique (1967)-alE13
Language                 : Polish

Audio #2
ID                    : 3
Format                  : DTS
Format/Info               : Digital Theater Systems
Format profile              : MA / Core
Codec ID                 : A_DTS
Duration                 : 1h 23mn
Bit rate mode              : Variable
Bit rate                 : 1 561 Kbps / 1 510 Kbps
Channel(s)                : 6 channels
Channel positions            : Front: L C R, Side: L R, LFE
Sampling rate              : 48.0 KHz
Bit depth                : 16 bits
Compression mode             : Lossless / Lossy
Delay relative to video         : 40s 300ms
Title                  : Indomptable Angelique (1967)-alE13
Language                 : French

Text #1
ID                    : 4
Format                  : UTF-8
Codec ID                 : S_TEXT/UTF8
Codec ID/Info              : UTF-8 Plain Text
Title                  : Indomptable Angelique (1967)-alE13
Language                 : Polish

Text #2
ID                    : 5
Format                  : UTF-8
Codec ID                 : S_TEXT/UTF8
Codec ID/Info              : UTF-8 Plain Text
Title                  : Indomptable Angelique (1967)-alE13
Language                 : English

http://i.imgur.com/yvusVac.jpg
http://i.imgur.com/B02B8oS.jpg
http://i.imgur.com/gboodTP.jpg
http://i.imgur.com/vULpa2t.jpg

Lista plików Show/Hide [Pokaż/Ukryj]
Trackery
Tracker URLSeedówPeerówPobrań
udp://open.demonii.com:1337/announce040
udp://tracker.openbittorrent.com:80/announce0310
http://tracker.aletorrenty.pl:2710/announce030
udp://tracker.aletorrenty.pl:2710/announce030
udp://tracker.publicbt.com:80/announce020
udp://tracker.istole.it:80/announce017
http://94.228.192.98/announce
http://tracker.electrotorrent.pl/tracker.php/announce

Komentarze

Brak komentarzy!

Dodawanie komentarza
Komentujesz torrenta:
Angelika wśród piratów - Indomptable Angélique (1967)[BRRip.x264 Dual Audio AC3/DTS[Lektor i napisy PL][Fre]

NAJCZĘŚCIEJ POBIERANE