Kategorie
Ranking
RSS
Hosting zapewnia

Google+
Programy

Statystyki
Użytkowników:
Zarejestrowanych wczoraj:
Zarejestrowanych dzisiaj:
Torrentów:
Dodanych wczoraj:
Dodanych dzisiaj:
Warezów:
Dodanych wczoraj:
Dodanych dzisiaj:
80,652
64
62
170,537
162
67
5,821
2
6
Ostatnie 30
Popularne
w Lutym
==Torrent==
Kategoria: TV/Seriale » Sci-Fi


Dodał: Lukarusi
Data dodania:
2018-02-13 17:46:58
Rozmiar: 1.75 GB
Seedów: 8
Peerów: 0
Pobrano: 56 razy
Kondycja:









Black Lightning S01E04 - Black Jesus [1080p.WEB-DL.H.264.DD5.1] [Lektor PL] [ENG+Napisy PL]



produkcja: USA
gatunek: Sci-Fi, Akcja, Dramat
reżyseria: Oz Scott, Salim Akil, Michael Schultz
scenariusz: Salim Akil, Tony Isabella, Trevor Von Eeden
zdjęcia: Scott Peck, Eduardo Enrique Mayén
muzyka: Kurt Farquhar
czas trwania: ok. 42 min.



Dyrektor szkoły i były superbohater, Jefferson Pierce, wraca do akcji jako legendarny Black Lightning, gdy pewien gang zaczyna grozić jego rodzinie.



Cress Williams - Jefferson Pierce / Black Lightning
China Anne McClain - Jennifer Pierce
Nafessa Williams - Anissa Pierce
Christine Adams - Lynn Pierce
Marvin 'Krondon' Jones III - Tobias Whale
Damon Gupton - Inspektor Henderson
James Remar - Peter Gambi
Skye P. Marshall - Ms. Fowdy / Kara
William Catlett - Lala
Anthony Reynolds - Zeke Cayman
Gregg Henry - Martin Proctor



Format : Matroska
Format version : Version 4 / Version 2
File size : 1.75 GiB
Duration : 42 min 16 s
Overall bit rate : 5 937 kb/s
Encoded date : UTC 2018-02-13 16:31:48

Video
ID : 1
Format : AVC
Format/Info : Advanced Video Codec
Format profile : High@L4
Format settings, CABAC : Yes
Format settings, RefFrames : 4 frames
Codec ID : V_MPEG4/ISO/AVC
Duration : 42 min 16 s
Bit rate : 5 167 kb/s
Width : 1 912 pixels
Height : 1 072 pixels
Display aspect ratio : 16:9
Frame rate mode : Constant
Frame rate : 23.976 (23976/1000) FPS
Color space : YUV
Chroma subsampling : 4:2:0
Bit depth : 8 bits
Scan type : Progressive
Bits/(Pixel*Frame) : 0.105
Stream size : 1.53 GiB (87%)
Color range : Limited
Color primaries : BT.709
Transfer characteristics : BT.709
Matrix coefficients : BT.709

Audio 1
ID : 2
Format : AC-3
Format/Info : Audio Coding 3
Format settings, Endianness : Big
Codec ID : A_AC3
Duration : 42 min 16 s
Bit rate mode : Constant
Bit rate : 384 kb/s
Channel(s) : 6 channels
Channel positions : Front: L C R, Side: L R, LFE
Sampling rate : 48.0 kHz
Frame rate : 31.250 FPS (1536 SPF)
Bit depth : 16 bits
Compression mode : Lossy
Stream size : 116 MiB (6%)
Language : Polish
Service kind : Complete Main
Default : Yes
Forced : Yes

Audio 2
ID : 3
Format : AC-3
Format/Info : Audio Coding 3
Format settings, Endianness : Big
Codec ID : A_AC3
Duration : 42 min 16 s
Bit rate mode : Constant
Bit rate : 384 kb/s
Channel(s) : 6 channels
Channel positions : Front: L C R, Side: L R, LFE
Sampling rate : 48.0 kHz
Frame rate : 31.250 FPS (1536 SPF)
Bit depth : 16 bits
Compression mode : Lossy
Stream size : 116 MiB (6%)
Language : English
Service kind : Complete Main
Default : No
Forced : No

Text
ID : 4
Format : UTF-8
Codec ID : S_TEXT/UTF8
Codec ID/Info : UTF-8 Plain Text
Duration : 41 min 35 s
Bit rate : 64 b/s
Count of elements : 630
Stream size : 19.5 KiB (0%)
Language : Polish
Default : No
Forced : No

Lista plikówShow/Hide [Pokaż/Ukryj]
Trackery
Tracker URLSeedówPeerówPobrań
http://tracker.vanitycore.co:6969/announce100
udp://shadowshq.eddie4.nl:6969/announce100
http://tracker.tfile.me/announce100
udp://eddie4.nl:6969/announce100
udp://tracker.leechers-paradise.org:6969/announce100
udp://9.rarbg.me:2740/announce100
udp://9.rarbg.com:2710/announce100
http://tracker.torrentyorg.pl/announce100
udp://poloniumsurfer.tk:6969/announce000
udp://torrent.gresille.org:80/announce000
http://tracker.filetracker.pl:8089/announce000
udp://tracker.pomf.se:80/announce000
udp://10.rarbg.com/announce000
udp://tracker.openbittorrent.com:80/announce000
udp://sugoi.pomf.se:80/announce000
udp://tracker.glotorrents.com:6969/announce000
http://mgtracker.org:2710/announce000
udp://tracker.istole.it:80/announce000
udp://tracker.prq.to/announce000
udp://tracker.torrentbay.to:6969/announce000
udp://exodus.desync.com:6969/announce000
udp://tracker.publicbt.com/announce000
udp://t1.pow7.com/announce000
http://retracker.omsk.ru:2710/announce
http://agusiq-torrents.pl:6969/announce000

Komentarze

Brak komentarzy!

Dodawanie komentarza
Komentujesz torrenta:
Black Lightning S01E04 - Black Jesus [1080p.WEB-DL.H.264.DD5.1] [Lektor PL] [ENG+Napisy PL]

NAJCZĘŚCIEJ POBIERANE

stat4u Najlepsze strony Torrentowe Torrenty