Kategorie
Ranking
RSS
Hosting zapewnia

Google+
Programy

Statystyki
Użytkowników:
Zarejestrowanych wczoraj:
Zarejestrowanych dzisiaj:
Torrentów:
Dodanych wczoraj:
Dodanych dzisiaj:
Warezów:
Dodanych wczoraj:
Dodanych dzisiaj:
92,350
70
3
192,249
126
37
8,259
2
0
Ostatnie 30
Popularne
w Październiku
==Torrent==
Kategoria: TV/Seriale » Thriller


Dodał: Lukarusi
Data dodania:
2018-02-13 18:35:47
Rozmiar: 1.48 GB
Seedów: 7
Peerów: 8
Pobrano: 40 razy
Kondycja:









The Exorcist S02E10 - Unworthy [720p.WEB-DL.H.264.AC3] [Lektor PL] [ENG+Napisy PL]



produkcja: USA
gatunek: Horror, Thriller
reżyseria: Jason Ensler, Alex Garcia Lopez, So Yong Kim, Deran Sarafian, Ti West
scenariusz: William Peter Blatty, Jeremy Slater, Alyssa Clark, Rebecca Kirsch
zdjęcia: Byron Shah
muzyka: Tyler Bates
czas trwania: ok. 44 min.



Serial oparty na powieści Williama Blatty’ego z 1971 roku. Twórcy The Exorcist przedstawiają zupełnie inną historię z nowymi postaciami, jednak fabuła wciąż skupia się na walce ze złem. Bohaterowie zajmują się jednym z przypadków opętania i obecności demonicznej mocy, której muszą stawić czoła.



Alfonso Herrera - Tomas Ortega
Ben Daniels - Marcus Keane
Kurt Egyiawan - Bennett
Cyrus Arnold - David "Truck" Johnson III
Amélie Eve - Grace
Hunter Dillon - Caleb
Li Jun Li - Rose Cooper
Alex Barima - Shelby



Format : Matroska
Format version : Version 4 / Version 2
File size : 1.48 GiB
Duration : 43 min 58 s
Overall bit rate : 4 813 kb/s
Encoded date : UTC 2018-02-13 17:27:40

Video
ID : 1
Format : AVC
Format/Info : Advanced Video Codec
Format profile : High@L3.1
Format settings, CABAC : No
Format settings, RefFrames : 2 frames
Codec ID : V_MPEG4/ISO/AVC
Duration : 43 min 58 s
Bit rate : 4 043 kb/s
Width : 1 280 pixels
Height : 718 pixels
Display aspect ratio : 16:9
Frame rate mode : Constant
Frame rate : 23.976 FPS
Color space : YUV
Chroma subsampling : 4:2:0
Bit depth : 8 bits
Scan type : Progressive
Bits/(Pixel*Frame) : 0.183
Stream size : 1.24 GiB (84%)
Color range : Limited
Color primaries : BT.709
Transfer characteristics : BT.709
Matrix coefficients : BT.709

Audio 1
ID : 2
Format : AC-3
Format/Info : Audio Coding 3
Format settings, Endianness : Big
Codec ID : A_AC3
Duration : 43 min 58 s
Bit rate mode : Constant
Bit rate : 384 kb/s
Channel(s) : 2 channels
Channel positions : Front: L R
Sampling rate : 48.0 kHz
Frame rate : 31.250 FPS (1536 SPF)
Bit depth : 16 bits
Compression mode : Lossy
Stream size : 121 MiB (8%)
Language : Polish
Service kind : Complete Main
Default : Yes
Forced : Yes

Audio 2
ID : 3
Format : AC-3
Format/Info : Audio Coding 3
Format settings, Endianness : Big
Codec ID : A_AC3
Duration : 43 min 58 s
Bit rate mode : Constant
Bit rate : 384 kb/s
Channel(s) : 6 channels
Channel positions : Front: L C R, Side: L R, LFE
Sampling rate : 48.0 kHz
Frame rate : 31.250 FPS (1536 SPF)
Bit depth : 16 bits
Compression mode : Lossy
Stream size : 121 MiB (8%)
Language : English
Service kind : Complete Main
Default : No
Forced : No

Text
ID : 4
Format : UTF-8
Codec ID : S_TEXT/UTF8
Codec ID/Info : UTF-8 Plain Text
Duration : 42 min 42 s
Bit rate : 43 b/s
Count of elements : 446
Stream size : 13.6 KiB (0%)
Language : Polish
Default : No
Forced : No

Lista plikówShow/Hide [Pokaż/Ukryj]
Trackery
Tracker URLSeedówPeerówPobrań
http://tracker.vanitycore.co:6969/announce110
udp://shadowshq.eddie4.nl:6969/announce110
http://tracker.tfile.me/announce110
udp://eddie4.nl:6969/announce110
udp://tracker.leechers-paradise.org:6969/announce110
udp://9.rarbg.me:2740/announce110
udp://9.rarbg.com:2710/announce110
http://tracker.torrentyorg.pl/announce010
udp://poloniumsurfer.tk:6969/announce000
udp://torrent.gresille.org:80/announce000
http://tracker.filetracker.pl:8089/announce000
udp://tracker.pomf.se:80/announce000
udp://10.rarbg.com/announce000
udp://tracker.openbittorrent.com:80/announce000
udp://sugoi.pomf.se:80/announce000
udp://tracker.glotorrents.com:6969/announce000
http://mgtracker.org:2710/announce000
udp://tracker.istole.it:80/announce000
udp://tracker.prq.to/announce000
udp://tracker.torrentbay.to:6969/announce000
udp://exodus.desync.com:6969/announce000
udp://tracker.publicbt.com/announce000
udp://t1.pow7.com/announce000
http://retracker.omsk.ru:2710/announce
http://agusiq-torrents.pl:6969/announce000
Podobne Pliki

Komentarze

Brak komentarzy!

Dodawanie komentarza
Komentujesz torrenta:
The Exorcist S02E10 - Unworthy [720p.WEB-DL.H.264.AC3] [Lektor PL] [ENG+Napisy PL]

NAJCZĘŚCIEJ POBIERANE

stat4u Najlepsze strony Torrentowe Torrenty