Kategorie
Ranking
RSS
Hosting zapewnia

Google+
Programy

Statystyki
Użytkowników:
Zarejestrowanych wczoraj:
Zarejestrowanych dzisiaj:
Torrentów:
Dodanych wczoraj:
Dodanych dzisiaj:
Warezów:
Dodanych wczoraj:
Dodanych dzisiaj:
92,349
70
2
192,249
126
37
8,259
2
0
Ostatnie 30
Popularne
w Październiku
==Torrent==
Kategoria: TV/Seriale » Kryminalny


Dodał: Lukarusi
Data dodania:
2018-02-13 18:52:55
Rozmiar: 1.05 GB
Seedów: 12
Peerów: 54
Pobrano: 75 razy
Kondycja:









Bron/Broen S04E07 [720p.WEB-DL.H.264.AAC2.0] [Napisy PL]



produkcja: Szwecja, Dania
gatunek: Kryminał, Thriller
reżyseria: Henrik Georgsson, Rumle Hammerich
scenariusz: Torleif Hoppe, Camilla Ahlgren, Veronica Zacco
zdjęcia: Carl Sundberg, Lars Reinholdt
muzyka: Patrik Andrén, Uno Helmersson
czas trwania: ok. 58 min.



Nowy sezon rozpoczyna się półtora roku po wydarzeniach z finału trzeciego sezonu. Na Peberholm, małej sztucznej wyspie u wybrzeży duńskiej części cieśniny Øresund, dochodzi do brutalnego zabójstwa. Ofiara to Margrethe Thormod, dyrektor generalna agencji migracyjnej w Kopenhadze.



Sofia Helin - Saga
Rafael Pettersson - John
Sarah Boberg - Lillian
Dag Malmberg - Hans
Thure Lindhardt - Henrik
Maria Kulle - Linn
Julie Carlsen - Barbara
Mikael Birkkjær - Jonas
Anders Mossling - Frank
Thomas W. Gabrielsson - Niels
Sandra Yi Sencindiver - Susanne
Lena Strömdahl - Harriet



Format : Matroska
Format version : Version 4 / Version 2
File size : 1.05 GiB
Duration : 58 min 19 s
Overall bit rate : 2 575 kb/s
Encoded date : UTC 2018-02-13 17:46:16

Video
ID : 1
Format : AVC
Format/Info : Advanced Video Codec
Format profile : High@L4.1
Format settings, CABAC : Yes
Format settings, RefFrames : 4 frames
Codec ID : V_MPEG4/ISO/AVC
Duration : 58 min 19 s
Bit rate mode : Constant
Bit rate : 2 383 kb/s
Nominal bit rate : 3 000 kb/s
Width : 1 280 pixels
Height : 720 pixels
Display aspect ratio : 16:9
Frame rate mode : Constant
Frame rate : 25.000 FPS
Color space : YUV
Chroma subsampling : 4:2:0
Bit depth : 8 bits
Scan type : Progressive
Bits/(Pixel*Frame) : 0.103
Stream size : 994 MiB (93%)
Color range : Limited
Color primaries : BT.709
Transfer characteristics : BT.709
Matrix coefficients : BT.709

Audio
ID : 2
Format : AAC
Format/Info : Advanced Audio Codec
Format profile : LC
Codec ID : A_AAC
Duration : 58 min 19 s
Bit rate : 192 kb/s
Channel(s) : 2 channels
Channel positions : Front: L R
Sampling rate : 48.0 kHz
Frame rate : 46.875 FPS (1024 SPF)
Compression mode : Lossy
Stream size : 79.0 MiB (7%)
Language : Danish

Text
ID : 3
Format : UTF-8
Codec ID : S_TEXT/UTF8
Codec ID/Info : UTF-8 Plain Text
Duration : 57 min 39 s
Bit rate : 41 b/s
Count of elements : 511
Stream size : 17.6 KiB (0%)
Language : Polish

Lista plikówShow/Hide [Pokaż/Ukryj]
Trackery
Tracker URLSeedówPeerówPobrań
udp://9.rarbg.com:2710/announce280
udp://9.rarbg.me:2740/announce280
udp://tracker.leechers-paradise.org:6969/announce271
udp://eddie4.nl:6969/announce271
udp://shadowshq.eddie4.nl:6969/announce271
http://tracker.vanitycore.co:6969/announce190
http://tracker.tfile.me/announce140
http://tracker.torrentyorg.pl/announce040
udp://tracker.glotorrents.com:6969/announce000
udp://poloniumsurfer.tk:6969/announce000
udp://10.rarbg.com/announce000
udp://tracker.openbittorrent.com:80/announce000
udp://sugoi.pomf.se:80/announce000
udp://tracker.pomf.se:80/announce000
udp://torrent.gresille.org:80/announce000
http://retracker.omsk.ru:2710/announce
udp://t1.pow7.com/announce000
http://tracker.filetracker.pl:8089/announce000
udp://tracker.publicbt.com/announce000
udp://tracker.torrentbay.to:6969/announce000
udp://tracker.prq.to/announce000
http://agusiq-torrents.pl:6969/announce000
udp://exodus.desync.com:6969/announce000
udp://tracker.istole.it:80/announce000
http://mgtracker.org:2710/announce000
Podobne Pliki

Komentarze

Brak komentarzy!

Dodawanie komentarza
Komentujesz torrenta:
Bron/Broen S04E07 [720p.WEB-DL.H.264.AAC2.0] [Napisy PL]

NAJCZĘŚCIEJ POBIERANE

stat4u Najlepsze strony Torrentowe Torrenty