Kategorie
Ranking
RSS
Hosting zapewnia

Google+
Programy

Statystyki
Użytkowników:
Zarejestrowanych wczoraj:
Zarejestrowanych dzisiaj:
Torrentów:
Dodanych wczoraj:
Dodanych dzisiaj:
Warezów:
Dodanych wczoraj:
Dodanych dzisiaj:
88,648
68
8
186,889
137
31
7,369
9
1
Ostatnie 30
Popularne
w Sierpniu
==Torrent==
Kategoria: TV/Seriale » Dramat


Dodał: Lukarusi
Data dodania:
2018-02-13 19:14:53
Rozmiar: 1.71 GB
Seedów: 19
Peerów: 6
Pobrano: 25 razy
Kondycja:









Chance S02E07 - Define Normal [1080p.HULU.WEB-DL.H.264.AAC2.0] [Napisy PL]



produkcja: USA
gatunek: Dramat, Thriller
scenariusz: Alexandra Cunningham, Kem Nunn, Peter Elkoff
reżyseria: Michael Lehmann, Lenny Abrahamson, Daniel Attias
muzyka: Will Bates
zdjęcia: Terry Stacey, Michael Bonvillain
czas trwania: ok. 52 min.



Borykający się ze skomplikowaną sprawą rozwodową i znudzony rutyną swojej dotychczasowej pracy, Chance postanawia pomóc tajemniczej kobiecie o imieniu Jaclyn, która wyznaje, że w domu zmaga się z brutalnym mężem. W ten sposób lekarz zostaje wciągnięty do zupełnie zdemoralizowanego, pełnego kłamstw i przemocy świata.



Hugh Laurie - Eldon Chance
Ethan Suplee - D
LisaGay Hamilton - Suzanne Silver
Greta Lee - Lucy
Stefania LaVie Owen - Nicole Chance
Paul Adelstein - Raymond Blackstone
Gretchen Mol - Jaclyn Blackstone
Clarke Peters - Carl
Diane Farr - Christina



Format : Matroska
Format version : Version 4 / Version 2
File size : 1.71 GiB
Duration : 51 min 50 s
Overall bit rate : 4 717 kb/s
Encoded date : UTC 2018-02-13 18:04:57

Video
ID : 1
Format : AVC
Format/Info : Advanced Video Codec
Format profile : High@L4
Format settings, CABAC : Yes
Format settings, RefFrames : 4 frames
Codec ID : V_MPEG4/ISO/AVC
Duration : 51 min 50 s
Bit rate : 4 651 kb/s
Width : 1 920 pixels
Height : 1 080 pixels
Display aspect ratio : 16:9
Frame rate mode : Constant
Frame rate : 23.976 (24000/1001) FPS
Color space : YUV
Chroma subsampling : 4:2:0
Bit depth : 8 bits
Scan type : Progressive
Bits/(Pixel*Frame) : 0.094
Stream size : 1.68 GiB (99%)

Audio
ID : 2
Format : AAC
Format/Info : Advanced Audio Codec
Format profile : HE-AAC / LC
Codec ID : A_AAC
Duration : 51 min 50 s
Bit rate : 64.0 kb/s
Channel(s) : 2 channels
Channel positions : Front: L R
Sampling rate : 48.0 kHz / 24.0 kHz
Frame rate : 23.438 FPS (1024 SPF)
Compression mode : Lossy
Stream size : 23.7 MiB (1%)
Language : English

Text
ID : 3
Format : UTF-8
Codec ID : S_TEXT/UTF8
Codec ID/Info : UTF-8 Plain Text
Duration : 50 min 43 s
Bit rate : 70 b/s
Count of elements : 858
Stream size : 26.2 KiB (0%)
Language : Polish

Lista plikówShow/Hide [Pokaż/Ukryj]
Trackery
Tracker URLSeedówPeerówPobrań
http://tracker.vanitycore.co:6969/announce3142
udp://9.rarbg.com:2710/announce313
udp://9.rarbg.me:2740/announce313
udp://tracker.leechers-paradise.org:6969/announce311
udp://shadowshq.eddie4.nl:6969/announce311
udp://eddie4.nl:6969/announce311
http://agusiq-torrents.pl:6969/announce100
udp://torrent.gresille.org:80/announce000
udp://tracker.glotorrents.com:6969/announce000
udp://tracker.pomf.se:80/announce000
udp://10.rarbg.com/announce000
udp://tracker.openbittorrent.com:80/announce000
udp://sugoi.pomf.se:80/announce000
http://tracker.tfile.me/announce
udp://poloniumsurfer.tk:6969/announce000
http://retracker.omsk.ru:2710/announce
udp://tracker.torrentbay.to:6969/announce000
udp://t1.pow7.com/announce000
udp://tracker.publicbt.com/announce000
udp://tracker.prq.to/announce000
udp://tracker.istole.it:80/announce000
http://tracker.torrentyorg.pl/announce
http://tracker.filetracker.pl:8089/announce000
udp://exodus.desync.com:6969/announce000
http://mgtracker.org:2710/announce000
Podobne Pliki

Komentarze

Brak komentarzy!

Dodawanie komentarza
Komentujesz torrenta:
Chance S02E07 - Define Normal [1080p.HULU.WEB-DL.H.264.AAC2.0] [Napisy PL]

NAJCZĘŚCIEJ POBIERANE

stat4u Najlepsze strony Torrentowe Torrenty