Kategorie
Ranking
RSS
Hosting zapewnia

Google+
Programy

Statystyki
Użytkowników:
Zarejestrowanych wczoraj:
Zarejestrowanych dzisiaj:
Torrentów:
Dodanych wczoraj:
Dodanych dzisiaj:
Warezów:
Dodanych wczoraj:
Dodanych dzisiaj:
96,643
61
15
197,767
71
31
9,267
9
0
Ostatnie 30
Popularne
w Grudniu
==Torrent==
Kategoria: TV/Seriale » Sci-Fi


Dodał: Lukarusi
Data dodania:
2018-03-13 18:16:22
Rozmiar: 1.31 GB
Seedów: 6
Peerów: 2
Pobrano: 46 razy
Kondycja:









Black Lightning S01E07 - Equinox: The Book of Fate [1080p.NF.WEB-DL.H.264.DD5.1] [Lektor PL] [ENG+Napisy PL]



produkcja: USA
gatunek: Sci-Fi, Akcja, Dramat
reżyseria: Oz Scott, Salim Akil, Michael Schultz
scenariusz: Salim Akil, Tony Isabella, Trevor Von Eeden
zdjęcia: Scott Peck, Eduardo Enrique Mayén
muzyka: Kurt Farquhar
czas trwania: ok. 41 min.



Dyrektor szkoły i były superbohater, Jefferson Pierce, wraca do akcji jako legendarny Black Lightning, gdy pewien gang zaczyna grozić jego rodzinie.



Cress Williams - Jefferson Pierce / Black Lightning
China Anne McClain - Jennifer Pierce
Nafessa Williams - Anissa Pierce
Christine Adams - Lynn Pierce
Marvin 'Krondon' Jones III - Tobias Whale
Damon Gupton - Inspektor Henderson
James Remar - Peter Gambi
Skye P. Marshall - Ms. Fowdy / Kara
William Catlett - Lala
Anthony Reynolds - Zeke Cayman
Gregg Henry - Martin Proctor



Format : Matroska
Format version : Version 4 / Version 2
File size : 1.31 GiB
Duration : 40 min 52 s
Overall bit rate mode : Variable
Overall bit rate : 4 590 kb/s
Encoded date : UTC 2018-03-13 16:26:08

Video
ID : 1
Format : AVC
Format/Info : Advanced Video Codec
Format profile : Main@L4
Format settings, CABAC : Yes
Format settings, RefFrames : 3 frames
Codec ID : V_MPEG4/ISO/AVC
Duration : 40 min 52 s
Bit rate mode : Variable
Bit rate : 3 830 kb/s
Maximum bit rate : 5 745 kb/s
Width : 1 920 pixels
Height : 1 080 pixels
Display aspect ratio : 16:9
Frame rate mode : Constant
Frame rate : 23.976 (24000/1001) FPS
Color space : YUV
Chroma subsampling : 4:2:0
Bit depth : 8 bits
Scan type : Progressive
Bits/(Pixel*Frame) : 0.077
Stream size : 1.09 GiB (83%)
Writing library : x264

Audio 1
ID : 2
Format : AC-3
Format/Info : Audio Coding 3
Format settings, Endianness : Big
Codec ID : A_AC3
Duration : 40 min 52 s
Bit rate mode : Constant
Bit rate : 384 kb/s
Channel(s) : 6 channels
Channel positions : Front: L C R, Side: L R, LFE
Sampling rate : 48.0 kHz
Frame rate : 31.250 FPS (1536 SPF)
Bit depth : 16 bits
Compression mode : Lossy
Stream size : 112 MiB (8%)
Language : Polish
Service kind : Complete Main
Default : Yes
Forced : Yes

Audio 2
ID : 3
Format : AC-3
Format/Info : Audio Coding 3
Format settings, Endianness : Big
Codec ID : A_AC3
Duration : 40 min 52 s
Bit rate mode : Constant
Bit rate : 384 kb/s
Channel(s) : 6 channels
Channel positions : Front: L C R, Side: L R, LFE
Sampling rate : 48.0 kHz
Frame rate : 31.250 FPS (1536 SPF)
Bit depth : 16 bits
Compression mode : Lossy
Stream size : 112 MiB (8%)
Language : English
Service kind : Complete Main
Default : No
Forced : No

Text
ID : 4
Format : UTF-8
Codec ID : S_TEXT/UTF8
Codec ID/Info : UTF-8 Plain Text
Duration : 39 min 46 s
Bit rate : 57 b/s
Count of elements : 556
Stream size : 16.7 KiB (0%)
Language : Polish
Default : No
Forced : No

Lista plikówShow/Hide [Pokaż/Ukryj]
Trackery
Tracker URLSeedówPeerówPobrań
http://tracker.vanitycore.co:6969/announce110
http://tracker.tfile.me/announce110
udp://tracker.leechers-paradise.org:6969/announce100
udp://eddie4.nl:6969/announce100
udp://9.rarbg.com:2740/announce100
udp://9.rarbg.me:2730/announce100
udp://torrent.gresille.org:80/announce000
http://tracker.filetracker.pl:8089/announce000
udp://tracker.glotorrents.com:6969/announce000
udp://poloniumsurfer.tk:6969/announce000
udp://tracker.pomf.se:80/announce000
udp://10.rarbg.com/announce000
udp://tracker.openbittorrent.com:80/announce000
udp://sugoi.pomf.se:80/announce000
http://agusiq-torrents.pl:6969/announce000
http://mgtracker.org:2710/announce000
udp://tracker.istole.it:80/announce000
udp://tracker.prq.to/announce000
udp://tracker.torrentbay.to:6969/announce000
udp://exodus.desync.com:6969/announce000
udp://tracker.publicbt.com/announce000
udp://shadowshq.eddie4.nl:6969/announce000
http://retracker.omsk.ru:2710/announce
http://tracker.torrentyorg.pl/announce
udp://t1.pow7.com/announce000

Komentarze

Brak komentarzy!

Dodawanie komentarza
Komentujesz torrenta:
Black Lightning S01E07 - Equinox: The Book of Fate [1080p.NF.WEB-DL.H.264.DD5.1] [Lektor PL] [ENG+Napisy PL]

NAJCZĘŚCIEJ POBIERANE

stat4u Najlepsze strony Torrentowe Torrenty