Kategorie
Ranking
RSS
Hosting zapewnia

Google+
Programy

Statystyki
Użytkowników:
Zarejestrowanych wczoraj:
Zarejestrowanych dzisiaj:
Torrentów:
Dodanych wczoraj:
Dodanych dzisiaj:
Warezów:
Dodanych wczoraj:
Dodanych dzisiaj:
86,054
31
4
182,033
90
2
6,552
27
0
Ostatnie 30
Popularne
w Czerwcu
==Torrent==
Kategoria: TV/Seriale » Dokumentalny


Dodał: Lukarusi
Data dodania:
2018-03-13 19:59:12
Rozmiar: 28.82 GB
Seedów: 75
Peerów: 882
Pobrano: 71 razy
Kondycja:









Hitler's Circle of Evil - Sezon 1 [1080p.NF.WEB-DL.H.264.AAC2.0] [Lektor PL]



produkcja: UK
gatunek: Dokument
twórca: Matthew Hinchcliffe, Simon Deeley, Vicky Matthews, Guy Smith, Ashley Morris, Chris Roberts
zdjęcia: Adrian Musto, Sashi Kissoon
czas trwania: ok. 52 min.



Pośród spisków, zdrad i sporów o władzę grono najbliższych Hitlerowi nazistowskich przywódców przejmuje władzę w III Rzeszy i planuje tragiczną przyszłość kraju.



Alisdair Simpson
Henrik Jørgensen
James Lowe
Blake Scott
Peter Turnbull
Jonathon Michaels
Steve Munroe
Conan Sweeny
Chris Wilson
Liam Shipton
Mairead Armstrong
Heather Cairns
Daniel Chapple
Alex Dee
Ty Hurley



Format : Matroska
Format version : Version 4 / Version 2
File size : 3.25 GiB
Duration : 51 min 57 s
Overall bit rate : 8 957 kb/s
Encoded date : UTC 2018-03-13 18:18:28

Video
ID : 1
Format : AVC
Format/Info : Advanced Video Codec
Format profile : Main@L4
Format settings, CABAC : Yes
Format settings, RefFrames : 2 frames
Format settings, GOP : M=1, N=13
Codec ID : V_MPEG4/ISO/AVC
Duration : 51 min 57 s
Bit rate : 8 858 kb/s
Width : 1 920 pixels
Height : 1 080 pixels
Display aspect ratio : 16:9
Frame rate mode : Constant
Frame rate : 25.000 FPS
Color space : YUV
Chroma subsampling : 4:2:0
Bit depth : 8 bits
Scan type : Progressive
Bits/(Pixel*Frame) : 0.171
Stream size : 3.21 GiB (99%)

Audio
ID : 2
Format : AAC
Format/Info : Advanced Audio Codec
Format profile : HE-AAC / LC
Codec ID : A_AAC
Duration : 51 min 57 s
Bit rate : 96.0 kb/s
Channel(s) : 2 channels
Channel positions : Front: L R
Sampling rate : 48.0 kHz / 24.0 kHz
Frame rate : 23.438 FPS (1024 SPF)
Compression mode : Lossy
Stream size : 35.7 MiB (1%)
Language : Polish

Lista plikówShow/Hide [Pokaż/Ukryj]
Trackery
Tracker URLSeedówPeerówPobrań
http://tracker.vanitycore.co:6969/announce1212428
udp://tracker.leechers-paradise.org:6969/announce1112026
udp://shadowshq.eddie4.nl:6969/announce1112026
udp://eddie4.nl:6969/announce1112026
udp://9.rarbg.com:2740/announce1011925
udp://9.rarbg.me:2730/announce1011925
http://tracker.torrentyorg.pl/announce6735
http://agusiq-torrents.pl:6969/announce48727
http://tracker.filetracker.pl:8089/announce000
udp://torrent.gresille.org:80/announce000
udp://poloniumsurfer.tk:6969/announce000
udp://tracker.pomf.se:80/announce000
udp://10.rarbg.com/announce000
udp://tracker.openbittorrent.com:80/announce000
udp://sugoi.pomf.se:80/announce000
udp://tracker.glotorrents.com:6969/announce000
http://mgtracker.org:2710/announce000
udp://tracker.istole.it:80/announce000
udp://tracker.prq.to/announce000
udp://tracker.torrentbay.to:6969/announce000
udp://exodus.desync.com:6969/announce000
udp://tracker.publicbt.com/announce000
udp://t1.pow7.com/announce000
http://retracker.omsk.ru:2710/announce
http://tracker.tfile.me/announce

Komentarze

Brak komentarzy!

Dodawanie komentarza
Komentujesz torrenta:
Hitler's Circle of Evil - Sezon 1 [1080p.NF.WEB-DL.H.264.AAC2.0] [Lektor PL]

NAJCZĘŚCIEJ POBIERANE

stat4u Najlepsze strony Torrentowe Torrenty