Kategorie
Ranking
RSS
Hosting zapewnia

Google+
Programy

Statystyki
Użytkowników:
Zarejestrowanych wczoraj:
Zarejestrowanych dzisiaj:
Torrentów:
Dodanych wczoraj:
Dodanych dzisiaj:
Warezów:
Dodanych wczoraj:
Dodanych dzisiaj:
83,940
33
3
176,932
120
28
5,983
3
1
Ostatnie 30
Popularne
w Kwietniu
==Torrent==
Kategoria: TV/Seriale » Thriller


Dodał: Lukarusi
Data dodania:
2018-04-16 16:11:50
Rozmiar: 2.80 GB
Seedów: 427
Peerów: 307
Pobrano: 228 razy
Kondycja:









Kruk. Szepty słychać po zmroku S01E05 [1080p.HDTV.H.264.AC3] [PL]



produkcja: Polska
gatunek: Thriller
reżyseria: Maciej Pieprzyca
scenariusz: Jakub Korolczuk
muzyka: Bartosz Chajdecki
zdjęcia: Jan Holoubek
czas trwania: ok. 50 min.



Na Podlasiu dochodzi do porwania nastoletniego chłopca. Adam Kruk, inspektor łódzkiego wydziału kryminalnego zostaje w tym samym czasie oddelegowany do Białegostoku. Po latach wraca do miasta, w którym dorastał, gdzie będzie musiał się zmierzyć nie tylko ze sprawą porwanego chłopca, ale także z mroczną stroną swojej przeszłości.



Michał Żurawski
Cezary Łukaszewicz
Katarzyna Wajda
Andrzej Zaborski
Anna Nehrebecka
Jerzy Schejbal
Marcin Bosak
Mariusz Jakus



Format : Matroska
Format version : Version 4 / Version 2
File size : 2.80 GiB
Duration : 49 min 51 s
Overall bit rate : 8 050 kb/s
Encoded date : UTC 2018-04-16 14:05:42

Video
ID : 1
Format : AVC
Format/Info : Advanced Video Codec
Format profile : Baseline@L4
Format settings, CABAC : No
Format settings, RefFrames : 1 frame
Format settings, GOP : M=1, N=3
Codec ID : V_MPEG4/ISO/AVC
Duration : 49 min 51 s
Bit rate : 7 856 kb/s
Width : 1 920 pixels
Height : 1 080 pixels
Display aspect ratio : 16:9
Frame rate mode : Constant
Frame rate : 25.000 FPS
Color space : YUV
Chroma subsampling : 4:2:0
Bit depth : 8 bits
Scan type : Progressive
Bits/(Pixel*Frame) : 0.152
Stream size : 2.74 GiB (98%)

Audio
ID : 2
Format : AC-3
Format/Info : Audio Coding 3
Format settings, Endianness : Big
Codec ID : A_AC3
Duration : 49 min 51 s
Bit rate mode : Constant
Bit rate : 192 kb/s
Channel(s) : 2 channels
Channel positions : Front: L R
Sampling rate : 48.0 kHz
Frame rate : 31.250 FPS (1536 SPF)
Bit depth : 16 bits
Compression mode : Lossy
Stream size : 68.5 MiB (2%)
Language : Polish
Service kind : Complete Main

Lista plikówShow/Hide [Pokaż/Ukryj]
Trackery
Tracker URLSeedówPeerówPobrań
http://tracker.vanitycore.co:6969/announce9867148
udp://eddie4.nl:6969/announce9169183
udp://shadowshq.eddie4.nl:6969/announce9168183
udp://tracker.leechers-paradise.org:6969/announce9168183
http://tracker.torrentyorg.pl/announce543531
udp://9.rarbg.me:2740/announce100
udp://9.rarbg.com:2800/announce100
http://tracker.tfile.me/announce002
udp://torrent.gresille.org:80/announce000
http://tracker.filetracker.pl:8089/announce000
udp://tracker.glotorrents.com:6969/announce000
udp://poloniumsurfer.tk:6969/announce000
udp://tracker.pomf.se:80/announce000
udp://10.rarbg.com/announce000
udp://tracker.openbittorrent.com:80/announce000
udp://sugoi.pomf.se:80/announce000
http://mgtracker.org:2710/announce000
udp://tracker.istole.it:80/announce000
udp://tracker.prq.to/announce000
udp://tracker.torrentbay.to:6969/announce000
udp://exodus.desync.com:6969/announce000
udp://tracker.publicbt.com/announce000
http://agusiq-torrents.pl:6969/announce000
http://retracker.omsk.ru:2710/announce000
udp://t1.pow7.com/announce000

Komentarze

Brak komentarzy!

Dodawanie komentarza
Komentujesz torrenta:
Kruk. Szepty słychać po zmroku S01E05 [1080p.HDTV.H.264.AC3] [PL]

NAJCZĘŚCIEJ POBIERANE

stat4u Najlepsze strony Torrentowe Torrenty