Kategorie
Ranking
RSS
Hosting zapewnia

Google+
Programy

Statystyki
Użytkowników:
Zarejestrowanych wczoraj:
Zarejestrowanych dzisiaj:
Torrentów:
Dodanych wczoraj:
Dodanych dzisiaj:
Warezów:
Dodanych wczoraj:
Dodanych dzisiaj:
83,940
33
3
176,932
120
28
5,983
3
1
Ostatnie 30
Popularne
w Kwietniu
==Torrent==
Kategoria: TV/Seriale » Kryminalny


Dodał: Lukarusi
Data dodania:
2018-04-17 20:45:53
Rozmiar: 1.16 GB
Seedów: 5
Peerów: 9
Pobrano: 48 razy
Kondycja:









Bosch S04E04 - Past Lives [720p.AMZN.WEB-DL.H.264.DD5.1] [Napisy PL]



produkcja: USA
gatunek: Kryminał, Dramat
scenariusz: Michael Connelly, Eric Ellis Overmyer
reżyseria: Aaron Lipstadt, Neema Barnette, Zetna Fuentes
muzyka: Jesse Voccia
zdjęcia: Patrick Cady, Michael McDonough
czas trwania: ok. 50 min.



"Bosch" oparty jest na książkach Michaela Connelly'ego, który jest współautorem scenariusza z Erikiem Overmyerem. Akcja skupia się na detektywie z wydziału zabójstw w Los Angeles.



Titus Welliver - Harry Bosch
Jamie Hector - Jerry Edgar
Amy Aquino - Grace Billets
Lance Reddick - Irvin Irving
Troy Evans - Johnson
Madison Lintz - Maddie
Scott Klace - John Mankiewicz
Sarah Clarke - Eleanor Wish
Steven Culp - Richard O'Shea



Format : Matroska
Format version : Version 4 / Version 2
File size : 1.16 GiB
Duration : 50 min 30 s
Overall bit rate mode : Variable
Overall bit rate : 3 276 kb/s
Encoded date : UTC 2018-04-17 18:39:21

Video
ID : 1
Format : AVC
Format/Info : Advanced Video Codec
Format profile : High@L3.1
Format settings, CABAC : Yes
Format settings, RefFrames : 5 frames
Codec ID : V_MPEG4/ISO/AVC
Duration : 50 min 30 s
Bit rate mode : Variable
Bit rate : 2 634 kb/s
Maximum bit rate : 4 500 kb/s
Width : 1 280 pixels
Height : 720 pixels
Display aspect ratio : 16:9
Frame rate mode : Constant
Frame rate : 23.976 (24000/1001) FPS
Color space : YUV
Chroma subsampling : 4:2:0
Bit depth : 8 bits
Scan type : Progressive
Bits/(Pixel*Frame) : 0.119
Stream size : 952 MiB (80%)
Color range : Limited
Color primaries : BT.709
Transfer characteristics : BT.709
Matrix coefficients : BT.709

Audio
ID : 2
Format : E-AC-3
Format/Info : Enhanced Audio Coding 3
Format settings, Endianness : Big
Codec ID : A_EAC3
Duration : 50 min 30 s
Bit rate mode : Constant
Bit rate : 640 kb/s
Channel(s) : 6 channels
Channel positions : Front: L C R, Side: L R, LFE
Sampling rate : 48.0 kHz
Frame rate : 187.500 FPS (256 SPF)
Compression mode : Lossy
Stream size : 231 MiB (20%)
Language : English
Service kind : Complete Main
Default : Yes
Forced : Yes

Text
ID : 3
Format : UTF-8
Codec ID : S_TEXT/UTF8
Codec ID/Info : UTF-8 Plain Text
Duration : 48 min 0 s
Bit rate : 55 b/s
Count of elements : 474
Stream size : 19.6 KiB (0%)
Language : Polish
Default : Yes
Forced : Yes

Lista plikówShow/Hide [Pokaż/Ukryj]
Trackery
Tracker URLSeedówPeerówPobrań
http://tracker.tfile.me/announce120
udp://eddie4.nl:6969/announce120
udp://tracker.leechers-paradise.org:6969/announce120
udp://shadowshq.eddie4.nl:6969/announce120
http://tracker.vanitycore.co:6969/announce110
http://mgtracker.org:2710/announce000
udp://tracker.glotorrents.com:6969/announce000
udp://torrent.gresille.org:80/announce000
udp://10.rarbg.com/announce000
udp://tracker.openbittorrent.com:80/announce000
udp://sugoi.pomf.se:80/announce000
udp://tracker.pomf.se:80/announce000
udp://poloniumsurfer.tk:6969/announce000
udp://9.rarbg.me:2740/announce000
udp://tracker.publicbt.com/announce000
http://tracker.torrentyorg.pl/announce000
http://agusiq-torrents.pl:6969/announce000
http://tracker.filetracker.pl:8089/announce000
udp://9.rarbg.com:2800/announce000
udp://t1.pow7.com/announce000
udp://exodus.desync.com:6969/announce000
udp://tracker.istole.it:80/announce000
udp://tracker.prq.to/announce000
udp://tracker.torrentbay.to:6969/announce000
http://retracker.omsk.ru:2710/announce000

Komentarze

Brak komentarzy!

Dodawanie komentarza
Komentujesz torrenta:
Bosch S04E04 - Past Lives [720p.AMZN.WEB-DL.H.264.DD5.1] [Napisy PL]

NAJCZĘŚCIEJ POBIERANE

stat4u Najlepsze strony Torrentowe Torrenty