Kategorie
Ranking
RSS
Hosting zapewnia

Google+
Programy

Statystyki
Użytkowników:
Zarejestrowanych wczoraj:
Zarejestrowanych dzisiaj:
Torrentów:
Dodanych wczoraj:
Dodanych dzisiaj:
Warezów:
Dodanych wczoraj:
Dodanych dzisiaj:
96,783
65
39
197,973
101
74
9,327
18
34
Ostatnie 30
Popularne
w Grudniu
==Torrent==
Kategoria: TV/Seriale » Kryminalny


Dodał: Lukarusi
Data dodania:
2018-05-16 18:24:52
Rozmiar: 1.36 GB
Seedów: 7
Peerów: 0
Pobrano: 134 razy
Kondycja:









Lucifer S03E24 - A Devil of My Word [720p.WEB-DL.H.264.DD5.1] [Napisy PL]



produkcja: USA
gatunek: Kryminał, Fantasy
reżyseria: Len Wiseman, Nathan Hope, Tim Matheson
scenariusz: Tom Kapinos
muzyka: Marco Beltrami, Dennis Smith
zdjęcia: Glen Keenan
czas trwania: ok. 44 min.



Nieszczęśliwy i znudzony swoim bytem Lucifer Morningstar porzuca funkcję Władcy Piekieł i udaje się do Los Angeles, gdzie zostaje właścicielem luksusowego klubu nocnego.



Tom Ellis - Lucifer Morningstar
Rachael Harris - Dr Linda Martin
Lesley-Ann Brandt - Mazikeen "Maze"
Lauren German - Chloe Dancer
Nicholas Gonzalez - Dan
D.B. Woodside - Amenadiel
Scarlett Estevez - Trixie



Format : Matroska
Format version : Version 4 / Version 2
File size : 1.36 GiB
Duration : 43 min 40 s
Overall bit rate : 4 453 kb/s
Encoded date : UTC 2018-05-16 15:58:23

Video
ID : 1
Format : AVC
Format/Info : Advanced Video Codec
Format profile : High@L3.1
Format settings : 2 Ref Frames
Format settings, CABAC : No
Format settings, ReFrames : 2 frames
Codec ID : V_MPEG4/ISO/AVC
Duration : 43 min 39 s
Bit rate : 4 067 kb/s
Width : 1 280 pixels
Height : 718 pixels
Display aspect ratio : 16:9
Frame rate mode : Constant
Frame rate : 23.976 (23976/1000) FPS
Color space : YUV
Chroma subsampling : 4:2:0
Bit depth : 8 bits
Scan type : Progressive
Bits/(Pixel*Frame) : 0.185
Stream size : 1.24 GiB (91%)
Color range : Limited
Color primaries : BT.709
Transfer characteristics : BT.709
Matrix coefficients : BT.709

Audio
ID : 2
Format : AC-3
Format/Info : Audio Coding 3
Codec ID : A_AC3
Duration : 43 min 40 s
Bit rate mode : Constant
Bit rate : 384 kb/s
Channel(s) : 6 channels
Channel positions : Front: L C R, Side: L R, LFE
Sampling rate : 48.0 kHz
Frame rate : 31.250 FPS (1536 SPF)
Bit depth : 16 bits
Compression mode : Lossy
Stream size : 120 MiB (9%)
Language : English
Service kind : Complete Main
Default : Yes
Forced : Yes

Text
ID : 3
Format : UTF-8
Codec ID : S_TEXT/UTF8
Codec ID/Info : UTF-8 Plain Text
Duration : 42 min 53 s
Bit rate : 69 b/s
Count of elements : 733
Stream size : 21.9 KiB (0%)
Language : Polish
Default : Yes
Forced : Yes

Lista plikówShow/Hide [Pokaż/Ukryj]
Trackery
Tracker URLSeedówPeerówPobrań
http://tracker.vanitycore.co:6969/announce100
udp://shadowshq.eddie4.nl:6969/announce100
http://tracker.tfile.me/announce100
udp://eddie4.nl:6969/announce100
udp://tracker.leechers-paradise.org:6969/announce100
udp://9.rarbg.me:2740/announce100
udp://9.rarbg.com:2800/announce100
udp://poloniumsurfer.tk:6969/announce000
udp://torrent.gresille.org:80/announce000
http://tracker.filetracker.pl:8089/announce000
udp://tracker.glotorrents.com:6969/announce000
udp://tracker.pomf.se:80/announce000
udp://10.rarbg.com/announce000
udp://tracker.openbittorrent.com:80/announce000
udp://sugoi.pomf.se:80/announce000
http://agusiq-torrents.pl:6969/announce000
http://mgtracker.org:2710/announce000
udp://tracker.istole.it:80/announce000
udp://tracker.prq.to/announce000
udp://tracker.torrentbay.to:6969/announce000
udp://exodus.desync.com:6969/announce000
udp://tracker.publicbt.com/announce000
http://tracker.torrentyorg.pl/announce
http://retracker.omsk.ru:2710/announce000
udp://t1.pow7.com/announce000
Podobne Pliki

Komentarze

Brak komentarzy!

Dodawanie komentarza
Komentujesz torrenta:
Lucifer S03E24 - A Devil of My Word [720p.WEB-DL.H.264.DD5.1] [Napisy PL]

NAJCZĘŚCIEJ POBIERANE

stat4u Najlepsze strony Torrentowe Torrenty