Kategorie
Ranking
RSS
Hosting zapewnia

Google+
Programy

Statystyki
Użytkowników:
Zarejestrowanych wczoraj:
Zarejestrowanych dzisiaj:
Torrentów:
Dodanych wczoraj:
Dodanych dzisiaj:
Warezów:
Dodanych wczoraj:
Dodanych dzisiaj:
92,347
70
0
192,213
126
1
8,259
2
0
Ostatnie 30
Popularne
w Październiku
==Torrent==
Kategoria: TV/Seriale » Sci-Fi


Dodał: Lukarusi
Data dodania:
2018-06-13 15:23:09
Rozmiar: 1.70 GB
Seedów: 196
Peerów: 26
Pobrano: 202 razy
Kondycja:









The Crossing S01E11 - These Are the Names [1080p.WEB-DL.H.264.AC3] [Lektor PL] [ENG+Napisy PL]



produkcja: USA
gatunek: Sci-Fi, Dramat, Przygodowy
reżyseria: Rob Bowman, Jeffrey G. Hunt, Alex Zakrzewski
scenariusz: Jay Beattie, Dan Dworkin
muzyka: Robert Duncan
zdjęcia: Brian Pearson, Thomas Yatsko
czas trwania: ok. 42 min.



Uchodźcy z odległej przyszłości uciekają z rozdartego wojną kraju. Szukając azylu, cofają się w czasie o 250 lat i zaczynają pojawiać się w jednym z amerykańskich miasteczek.



Natalie Martinez - Reece
Tommy Bastow - Marshall
Rob Campbell - Paul
Marcuis Harris - Caleb
Jay Karnes - Craig Lindauer
Luc Roderique - Bryce Foster
Bailey Skodje - Leah
Sandrine Holt - Emma Peralta
Steve Zahn - Jude Ellis
Simone Kessell - Rebecca
Grant Harvey - Roy Aronson
Kelley Missal - Hannah
Rick Gomez - Nestor Rosario



Format : Matroska
Format version : Version 4 / Version 2
File size : 1.70 GiB
Duration : 41 min 58 s
Overall bit rate : 5 812 kb/s
Encoded date : UTC 2018-06-13 13:20:57

Video
ID : 1
Format : AVC
Format/Info : Advanced Video Codec
Format profile : High@L4
Format settings : CABAC / 4 Ref Frames
Format settings, CABAC : Yes
Format settings, ReFrames : 4 frames
Codec ID : V_MPEG4/ISO/AVC
Duration : 41 min 58 s
Bit rate mode : Constant
Bit rate : 5 278 kb/s
Width : 1 920 pixels
Height : 1 080 pixels
Display aspect ratio : 16:9
Frame rate mode : Constant
Frame rate : 23.976 (24000/1001) FPS
Color space : YUV
Chroma subsampling : 4:2:0
Bit depth : 8 bits
Scan type : Progressive
Bits/(Pixel*Frame) : 0.106
Stream size : 1.48 GiB (87%)
Color range : Limited
Color primaries : BT.709
Transfer characteristics : BT.709
Matrix coefficients : BT.709

Audio 1
ID : 2
Format : AC-3
Format/Info : Audio Coding 3
Codec ID : A_AC3
Duration : 41 min 58 s
Bit rate mode : Constant
Bit rate : 384 kb/s
Channel(s) : 2 channels
Channel positions : Front: L R
Sampling rate : 48.0 kHz
Frame rate : 31.250 FPS (1536 SPF)
Bit depth : 16 bits
Compression mode : Lossy
Stream size : 115 MiB (7%)
Language : Polish
Service kind : Complete Main
Default : Yes
Forced : Yes

Audio 2
ID : 3
Format : AC-3
Format/Info : Audio Coding 3
Codec ID : A_AC3
Duration : 41 min 58 s
Bit rate mode : Constant
Bit rate : 384 kb/s
Channel(s) : 6 channels
Channel positions : Front: L C R, Side: L R, LFE
Sampling rate : 48.0 kHz
Frame rate : 31.250 FPS (1536 SPF)
Bit depth : 16 bits
Compression mode : Lossy
Stream size : 115 MiB (7%)
Language : English
Service kind : Complete Main
Default : No
Forced : No

Text
ID : 4
Format : UTF-8
Codec ID : S_TEXT/UTF8
Codec ID/Info : UTF-8 Plain Text
Duration : 40 min 35 s
Bit rate : 38 b/s
Count of elements : 472
Stream size : 11.4 KiB (0%)
Language : Polish
Default : No
Forced : No

Lista plikówShow/Hide [Pokaż/Ukryj]
Trackery
Tracker URLSeedówPeerówPobrań
http://tracker.vanitycore.co:6969/announce364385
udp://tracker.leechers-paradise.org:6969/announce344385
udp://shadowshq.eddie4.nl:6969/announce344385
udp://eddie4.nl:6969/announce344385
udp://exodus.desync.com:6969/announce304290
udp://9.rarbg.me:2740/announce1430
udp://9.rarbg.com:2800/announce1430
udp://torrent.gresille.org:80/announce000
http://tracker.filetracker.pl:8089/announce000
udp://tracker.glotorrents.com:6969/announce000
udp://poloniumsurfer.tk:6969/announce000
udp://tracker.pomf.se:80/announce000
udp://tracker.openbittorrent.com:80/announce000
udp://sugoi.pomf.se:80/announce000
http://tracker.tfile.me/announce
udp://10.rarbg.com/announce000
http://mgtracker.org:2710/announce000
udp://tracker.istole.it:80/announce000
udp://tracker.prq.to/announce000
udp://tracker.torrentbay.to:6969/announce000
udp://tracker.publicbt.com/announce000
http://tracker.torrentyorg.pl/announce000
http://agusiq-torrents.pl:6969/announce000
http://retracker.omsk.ru:2710/announce000
udp://t1.pow7.com/announce000
Podobne Pliki

Komentarze

Brak komentarzy!

Dodawanie komentarza
Komentujesz torrenta:
The Crossing S01E11 - These Are the Names [1080p.WEB-DL.H.264.AC3] [Lektor PL] [ENG+Napisy PL]

NAJCZĘŚCIEJ POBIERANE

stat4u Najlepsze strony Torrentowe Torrenty