Kategorie
Ranking
RSS
Programy

Statystyki
Użytkowników:
Zarejestrowanych wczoraj:
Zarejestrowanych dzisiaj:
Torrentów:
Dodanych wczoraj:
Dodanych dzisiaj:
Warezów:
Dodanych wczoraj:
Dodanych dzisiaj:
110,134
36
24
215,241
77
59
13,789
8
3
Ostatnie 30
Popularne
w Lipcu
==Torrent==
Kategoria: Filmy 3D » Melodramat


Dodał: electroloader
Data dodania:
2013-06-29 16:29:28
Rozmiar: 3.92 GB
Seedów: 1
Peerów: 1
Pobrano: 19 razy
Kondycja:









Odwróceni zakochani 3D (OU) - Upside Down 3D *2012* [mini-HD.1080p.Over-Under.AC3.BluRay.x264-SONDA] [Lektor PL]

Film w wersji 3D Over-Under.
Do odtworzenia filmu WYMAGANY odpowiedni sprzęt (TV 3D)

===================================
Kopia mini-HD 1080p = 3,92 GB
===================================

gatunek: Melodramat,Sci-Fi
produkcja: Francja,Kanada
premiera: 7 września 2012 (Polska) 15 marca 2012 (świat)
reżyseria: Juan Diego Solanas
scenariusz: Juan Diego Solanas,Santiago Amigorena,Harris Demel

Jim Sturgess - Adam
Kirsten Dunst - Eden
Timothy Spall - Bob Boruchovitz
Heidi Hawkins - Reporterka

Porywające love story osadzone w oszałamiających wizualnie realiach alternatywnego wszechświata. Zjawiskowa Kirsten Dunst ("Spiderman", "Melancholia") i znakomity Jim Sturgess ("Niepokonani") zakochani miłością niemożliwą. Dwie planety, dwoje ukochanych i granica, której nie wolno przekraczać. Ale miłość nie respektuje zakazów.
Adam jest zwykłym chłopakiem w niezwykłym wszechświecie. Wiedzie skromne życie wypełnione pracą i marzeniami o Ewie - dziewczynie, którą poznał przed laty i o której nie potrafi zapomnieć. Ewa pochodzi z równoległego świata, który znajduje się tuż nad światem Adama. Ta planeta rządząca się swoimi prawami, własną grawitacją, jest niedostępna dla Adama i jemu podobnych. Pewnego dnia chłopak dowiaduje się, że istnieje bardzo ryzykowny, nielegalny sposób przedostania się do świata Ewy. Będzie musiał złamać wszelkie normy i zasady, przeciwstawić się prawom fizyki i zaryzykować życie wkradając się do zakazanego świata, by odnaleźć miłość swojego życia…

==================================================
BluRay 3D Rip (OU) - SONDA
==================================================

General
Unique ID : 252997307390773579837774070331235828453 (0xBE55824ED406B9BF865D04B3974F02E5)
Complete name : E:mkvUPSIDE_DOWN(Sonda)UPSIDE_DOWN.Title1(Sonda).mkv
Format : Matroska
Format version : Version 2
File size : 3.92 GiB
Duration : 1h 48mn
Overall bit rate mode : Variable
Overall bit rate : 5 193 Kbps
Movie name : UPSIDE_DOWN.Title1.Bluray3D Rip by Sonda
Encoded date : UTC 2013-06-23 12:33:05
Writing application : mkvmerge v5.7.0 ('The Whirlwind') built on Jul 8 2012 20:08:51
Writing library : libebml v1.2.3 + libmatroska v1.3.0

Video
ID : 1
Format : AVC
Format/Info : Advanced Video Codec
Format profile : High@L4.1
Format settings, CABAC : Yes
Format settings, ReFrames : 2 frames
Codec ID : V_MPEG4/ISO/AVC
Duration : 1h 48mn
Bit rate mode : Variable
Bit rate : 4 641 Kbps
Maximum bit rate : 40.0 Mbps
Width : 1 920 pixels
Height : 1 080 pixels
Display aspect ratio : 16:9
Frame rate mode : Constant
Frame rate : 23.976 fps
Color space : YUV
Chroma subsampling : 4:2:0
Bit depth : 8 bits
Scan type : Progressive
Bits/(Pixel*Frame) : 0.093
Stream size : 3.50 GiB (89%)
Title : BluRay 3D Rip by Sonda
Writing library : x264 core
Default : Yes
Forced : No
Color primaries : BT.709
Transfer characteristics : BT.709
Matrix coefficients : BT.709

Audio
ID : 2
Format : AC-3
Format/Info : Audio Coding 3
Mode extension : CM (complete main)
Format settings, Endianness : Big
Codec ID : A_AC3
Duration : 1h 48mn
Bit rate mode : Constant
Bit rate : 448 Kbps
Channel(s) : 6 channels
Channel positions : Front: L C R, Side: L R, LFE
Sampling rate : 48.0 KHz
Bit depth : 16 bits
Compression mode : Lossy
Stream size : 346 MiB (9%)
Title : AC3 5.1 Lektor PL
Language : Polish
Default : Yes
Forced : Yes

Lista plików Show/Hide [Pokaż/Ukryj]
Trackery
Tracker URLSeedówPeerówPobrań
http://exodus.desync.com:6969/announce110
http://fr33dom.h33t.com:3310/announce000
http://www.h33t.com:3310/announce000
http://i.bandito.org/announce
Podobne Pliki

Komentarze

Brak komentarzy!

Dodawanie komentarza
Komentujesz torrenta:
Odwróceni zakochani 3D (OU) - Upside Down 3D *2012* [mini-HD.1080p.Over-Under.AC3.BluRay.x264-SONDA] [Lektor PL]

NAJCZĘŚCIEJ POBIERANE