13 godzin: Tajna misja w Benghazi / 13 Hours: The Secret Soldiers of Benghazi (2016) [1080p] [BluRay] [x265.HEVC.10Bit] [AC35.1] [Lektor PL]
Kategorie
Ranking
RSS
Programy

Statystyki
Użytkowników:
Zarejestrowanych wczoraj:
Zarejestrowanych dzisiaj:
Torrentów:
Dodanych wczoraj:
Dodanych dzisiaj:
Warezów:
Dodanych wczoraj:
Dodanych dzisiaj:
111,254
27
42
217,468
84
76
14,160
19
7
Ostatnie 30
Popularne
w Sierpniu
==Torrent==
Kategoria: Filmy x265/h265 » Dramat


Dodał: piotras78
Data dodania:
2018-09-23 18:50:41
Rozmiar: 2.48 GB
Seedów: 124
Peerów: 18
Pobrano: 213 razy
Kondycja:









13 godzin: Tajna misja w Benghazi / 13 Hours: The Secret Soldiers of Benghazi (2016) [1080p] [BluRay] [x265.HEVC.10Bit] [AC35.1] [Lektor PL]



Produkcja: USA
Gatunek: Dramat, Akcja
Premiera: 12 stycznia 2016 (świat)
Reżyseria: Michael Bay
Scenariusz: Chuck Hogan

...(O FILMIE)...

https://www.filmweb.pl/film/13+godzin%3A+Tajna+misja+w+Benghazi-2016-732993#



To jest prawdziwa historia. Bengazi w Libii, 11 września 2012 roku. Amerykański ambasador ginie podczas zamachu w Libii. Zespół bezpieczeństwa stara się opanować sytuację w wytworzonym chaosie. Sześciu mężczyzn miało odwagę próbować niemożliwego. Ich walka trwała 13 godzin.



John Krasinski .... Jack Silva
James Badge Dale .... Tyrone "Rone" Woods
Pablo Schreiber .... Kris "Tanto" Paronto
David Denman .... Dave "Boon" Benton
Dominic Fumusa .... John "Tig" Tiegen
Max Martini .... Mark "Oz" Geist
Alexia Barlier .... Sona Jillani
David Costabile .... Bob



Format : Matroska
Format version : Version 4
File size : 2.48 GiB
Duration : 2 h 24 min
Overall bit rate : 2 461 kb/s
Movie name : 13 HOURS THE SECRET SOLDIERS OF BENGHAZI (2016) PL.1080p.BluRay.HEVC.AC3 5.1
Encoded date : UTC 2018-09-23 16:26:14
Writing application : mkvmerge v26.0.0 ('In The Game') 64-bit
Writing library : libebml v1.3.6 + libmatroska v1.4.9

Video
ID : 1
Format : HEVC
Format/Info : High Efficiency Video Coding
Format profile : Main 10@L4@Main
Codec ID : V_MPEGH/ISO/HEVC
Duration : 2 h 24 min
Bit rate : 1 820 kb/s
Width : 1 920 pixels
Height : 800 pixels
Display aspect ratio : 2.40:1
Frame rate mode : Constant
Frame rate : 23.976 (24000/1001) FPS
Color space : YUV
Chroma subsampling : 4:2:0
Bit depth : 10 bits
Bits/(Pixel*Frame) : 0.049
Stream size : 1.84 GiB (74%)
Default : Yes
Forced : No
Color range : Limited
Color primaries : BT.709
Transfer characteristics : BT.709
Matrix coefficients : BT.709

Audio
ID : 2
Format : AC-3
Format/Info : Audio Coding 3
Commercial name : Dolby Digital
Codec ID : A_AC3
Duration : 2 h 24 min
Bit rate mode : Constant
Bit rate : 640 kb/s
Channel(s) : 6 channels
Channel layout : L R C LFE Ls Rs
Sampling rate : 48.0 kHz
Frame rate : 31.250 FPS (1536 SPF)
Bit depth : 16 bits
Compression mode : Lossy
Stream size : 661 MiB (26%)
Language : Polish
Service kind : Complete Main
Default : Yes
Forced : No

Lista plików Show/Hide [Pokaż/Ukryj]
Trackery
Tracker URLSeedówPeerówPobrań
udp://9.rarbg.me:2710/announce34787
http://tracker.torrentyorg.pl/announce20318
udp://tracker.coppersurfer.tk:6969/announce142212
udp://tracker.pirateparty.gr:6969/announce142212
udp://tracker.internetwarriors.net:1337/announce142111
udp://tracker.vanitycore.co:6969/announce141173
udp://tracker.opentrackr.org:1337/announce141112
http://agusiq-torrents.pl:6969/announce000
udp://p4p.arenabg.ch:1337/announce000
udp://inferno.demonoid.ooo:3389/announce000

Komentarze

Brak komentarzy!

Dodawanie komentarza
Komentujesz torrenta:
13 godzin: Tajna misja w Benghazi / 13 Hours: The Secret Soldiers of Benghazi (2016) [1080p] [BluRay] [x265.HEVC.10Bit] [AC35.1] [Lektor PL]

NAJCZĘŚCIEJ POBIERANE