Kategorie
Ranking
RSS
Programy

Statystyki
Użytkowników:
Zarejestrowanych wczoraj:
Zarejestrowanych dzisiaj:
Torrentów:
Dodanych wczoraj:
Dodanych dzisiaj:
Warezów:
Dodanych wczoraj:
Dodanych dzisiaj:
109,997
30
31
214,956
92
69
13,743
10
8
Ostatnie 30
Popularne
w Lipcu
==Torrent==
Kategoria: Filmy x265/h265 » Akcja


Dodał: RIAS
Data dodania:
2018-10-21 11:49:40
Rozmiar: 717.08 MB
Seedów: 28
Peerów: 14
Pobrano: 59 razy
Kondycja:









Niepamięć / Oblivion (2013) [BRRip] [X265] [WAR] [ENG]



Produkcja: USA
Gatunek: Akcja, Sci-Fi
Premiera: 19 kwietnia 2013 (Polska), 26 marca 2013 (świat)
Reżyseria: Joseph Kosinski
Scenariusz: Joseph Kosinski, Karl Gajdusek



Jest rok 2077: Jack Harper (Cruise) stacjonuje na ewakuowanej Ziemi, serwisując niesprawne drony. Jego misja jako część operacji mającej na celu zabezpieczenie niezbędnych surowców po dekadach wojen z obcymi dobiega końca. Za dwa tygodnie Harper dołączy do grupy ocalałych przebywających w kolonii, na księżycu Saturna - Tytanie, z dala od zniszczonego wojną świata, który kiedyś nazywał domem. Życie patrolującego niebo z wysokości tysięcy metrów Jacka ulega drastycznej zmianie, kiedy ratuje z rozbitego statku kosmicznego piękną nieznajomą. Pojawienie się kobiety daje początek łańcuchowi wydarzeń, które zmuszają Jacka do podania w wątpliwość wszystkiego, co do tej pory wiedział. Odkrywając szokującą prawdę, która łączy go z Ziemią z przeszłości, Jack zostaje zmuszony do licznych aktów odwagi. Los ludzkości spoczywa teraz w rękach człowieka, który wierzył, że nasz świat wkrótce zostanie stracony na zawsze.



★ Tom Cruise .... Jack Harper
★ Morgan Freeman .... Malcolm Beech
★ Olga Kurylenko .... Julia
★ Andrea Riseborough .... Victoria
★ Nikolaj Coster-Waldau .... Sykes
★ Melissa Leo .... Sally
★ Zoë Bell .... Kara
★ Abigail Lowe .... Dziecko Julii



General
Complete name : Oblivion.2013.BRRip.x265-WAR\woblivion.mkv
Format : Matroska
Format version : Version 2
File size : 709 MiB
Duration : 2 h 4 min
Overall bit rate : 795 kb/s
Encoded date : UTC 2015-10-08 18:42:18
Writing application : mkvmerge v8.4.0 ('A better way to fly') 32bit
Writing library : libebml v1.3.1 + libmatroska v1.4.2

Video
ID : 1
Format : HEVC
Format/Info : High Efficiency Video Coding
Format profile : Main@L2.1@Main
Codec ID : V_MPEGH/ISO/HEVC
Duration : 2 h 4 min
Bit rate : 601 kb/s
Width : 720 pixels
Height : 304 pixels
Display aspect ratio : 2.35:1
Frame rate mode : Constant
Frame rate : 23.976 (24000/1001) FPS
Color space : YUV
Chroma subsampling : 4:2:0
Bit depth : 8 bits
Bits/(Pixel*Frame) : 0.114
Stream size : 536 MiB (76%)
Writing library : x265 1.7+266-68d089360477:[Windows][GCC 4.9.2][64 bit] 8bit
Encoding settings : wpp / ctu=64 / min-cu-size=8 / max-tu-size=32 / tu-intra-depth=1 / tu-inter-depth=1 / me=1 / subme=2 / merange=57 / no-rect / no-amp / max-merge=2 / temporal-mvp / no-early-skip / rdpenalty=0 / no-tskip / no-tskip-fast / strong-intra-smoothing / no-lossless / no-cu-lossless / no-constrained-intra / no-fast-intra / open-gop / no-temporal-layers / interlace=0 / keyint=250 / min-keyint=23 / scenecut=40 / rc-lookahead=20 / lookahead-slices=0 / bframes=4 / bframe-bias=0 / b-adapt=2 / ref=3 / limit-refs=0 / weightp / no-weightb / aq-mode=1 / aq-strength=1.00 / cbqpoffs=0 / crqpoffs=0 / rd=3 / psy-rd=0.30 / rdoq-level=0 / psy-rdoq=0.00 / signhide / deblock / sao / no-sao-non-deblock / b-pyramid / cutree / rc=2 / pass / bitrate=600 / qcomp=0.60 / qpmin=0 / qpmax=51 / qpstep=4 / cplxblur=20.0 / qblur=0.5 / ipratio=1.40 / pbratio=1.30
Default : Yes
Forced : No

Audio
ID : 2
Format : AC-3
Format/Info : Audio Coding 3
Mode extension : CM (complete main)
Format settings, Endianness : Big
Codec ID : A_AC3
Duration : 2 h 4 min
Bit rate mode : Constant
Bit rate : 192 kb/s
Channel(s) : 2 channels
Channel positions : Front: L R
Sampling rate : 48.0 kHz
Frame rate : 31.250 FPS (1536 spf)
Bit depth : 16 bits
Compression mode : Lossy
Stream size : 171 MiB (24%)
Language : English
Default : Yes
Forced : No

Trailer
Lista plików Show/Hide [Pokaż/Ukryj]
Trackery
Tracker URLSeedówPeerówPobrań
udp://tracker.coppersurfer.tk:6969/announce847
udp://tracker.opentrackr.org:1337/announce548
http://p2p-torrent.ru.tf/announce.php?pid=b25d1a88159deed69a52691
udp://9.rarbg.me:2710/announce529
udp://explodie.org:6969/announce528

Komentarze

Brak komentarzy!

Dodawanie komentarza
Komentujesz torrenta:
Niepamięć / Oblivion (2013) [BRRip] [X265] [WAR] [ENG]

NAJCZĘŚCIEJ POBIERANE