Człowiek w ogniu / Man on Fire (2004) [BRRip x265] [WAR] [ENG]
Kategorie
Ranking
RSS
Programy

Statystyki
Użytkowników:
Zarejestrowanych wczoraj:
Zarejestrowanych dzisiaj:
Torrentów:
Dodanych wczoraj:
Dodanych dzisiaj:
Warezów:
Dodanych wczoraj:
Dodanych dzisiaj:
111,218
27
6
217,401
84
7
14,155
19
2
Ostatnie 30
Popularne
w Sierpniu
==Torrent==
Kategoria: Filmy x265/h265 » Dramat


Dodał: RIAS
Data dodania:
2018-10-31 11:07:13
Rozmiar: 836.76 MB
Seedów: 7
Peerów: 2
Pobrano: 21 razy
Kondycja:









Człowiek w ogniu / Man on Fire (2004) [BRRip x265] [WAR] [ENG]



Produkcja: USA, Wielka Brytania
Gatunek: Dramat, Sensacyjny
Premiera: 15 października 2004 (Polska), 21 kwietnia 2004 (świat)
Reżyseria: Tony Scott
Scenariusz: Brian Helgeland



Amerykanin John Creasy jest człowiekiem, którego nawet na jawie prześladują koszmary z przeszłości. Często zagląda do kieliszka, ma myśli samobójcze, gdyż poszukuje sensu swego życia. Tego szuka nawet w Biblii, ale ona nie daje mu odpowiedzi. Jego przyjaciel Rayburn znajduje mu w Meksyku posadę ochroniarza dziewczynki imieniem Pita Ramos, która jest córką bogatego Meksykanina Samuela i Amerykanki Lisy. W Meksyku od jakiegoś czasu coraz częściej zdarzają się porwania dla okupu i nie tylko. Ofiary rzadko kiedy wychodzą z tego cało - są okrutnie okaleczone lub po prostu bestialsko mordowane. Creasy ma za zadanie właśnie przed tym ochraniać Pitę. Na początku Creasy z trudem znosi obecność ciekawskiej i rezolutnej dziewczynki, która stara się z nim zaprzyjaźnić. Jednak Creasy uważa, że jej rodzice zapłacili mu za jej pilnowanie, a nie za coś więcej. Na szczęście dziewczynka ma ten dar, dzięki któremu udaje jej się jednak zaprzyjaźnić z ochroniarzem. Dzięki niej Creasy wreszcie odnajduje sens swojego życia, odstawia alkohol i zaczyna się wreszcie uśmiechać, cieszyć życiem. Niestety, pewnego dnia sielanka dobiega końca. Bandyci urządzają zasadzkę i pomimo bohaterskiej walki Creasy’ego - Pita zostaje porwana, a on w ciężkim stanie trafia do szpitala. Pomimo tego obiecuje sobie pomścić swoją małą przyjaciółkę.



★ Denzel Washington .... John W. Creasy
★ Dakota Fanning .... Lupita Ramos
★ Marc Anthony .... Samuel Ramos
★ Radha Mitchell .... Lisa Ramos
★ Christopher Walken .... Paul Rayburn
★ Giancarlo Giannini .... Miguel Manzano
★ Rachel Ticotin .... Mariana Garcia Guerrero
★ Jesús Ochoa .... Victor Fuentes


General
Complete name : Man.On.Fire.2004.BRRip.x265-WAR\wmonf.mkv
Format : Matroska
Format version : Version 2
File size : 830 MiB
Duration : 2 h 26 min
Overall bit rate : 795 kb/s
Encoded date : UTC 2015-11-14 19:25:02
Writing application : mkvmerge v8.5.2 ('Crosses') 32bit
Writing library : libebml v1.3.3 + libmatroska v1.4.4

Video
ID : 1
Format : HEVC
Format/Info : High Efficiency Video Coding
Format profile : Main@L2.1@Main
Codec ID : V_MPEGH/ISO/HEVC
Duration : 2 h 26 min
Bit rate : 600 kb/s
Width : 720 pixels
Height : 304 pixels
Display aspect ratio : 2.35:1
Frame rate mode : Constant
Frame rate : 23.976 (24000/1001) FPS
Color space : YUV
Chroma subsampling : 4:2:0
Bit depth : 8 bits
Bits/(Pixel*Frame) : 0.114
Stream size : 627 MiB (76%)
Writing library : x265 1.8+2-55a4a9b920ff:[Windows][GCC 5.2.0][64 bit] 8bit+10bit+12bit
Encoding settings : wpp / ctu=64 / min-cu-size=8 / max-tu-size=32 / tu-intra-depth=1 / tu-inter-depth=1 / me=1 / subme=2 / merange=57 / no-rect / no-amp / max-merge=2 / temporal-mvp / no-early-skip / rdpenalty=0 / no-tskip / no-tskip-fast / strong-intra-smoothing / no-lossless / no-cu-lossless / no-constrained-intra / no-fast-intra / open-gop / no-temporal-layers / interlace=0 / keyint=250 / min-keyint=23 / scenecut=40 / rc-lookahead=20 / lookahead-slices=0 / bframes=4 / bframe-bias=0 / b-adapt=2 / ref=3 / limit-refs=0 / weightp / no-weightb / aq-mode=1 / qg-size=32 / aq-strength=1.00 / cbqpoffs=0 / crqpoffs=0 / rd=3 / psy-rd=0.30 / rdoq-level=0 / psy-rdoq=0.00 / signhide / deblock / sao / no-sao-non-deblock / b-pyramid / cutree / rc=2 / pass / bitrate=600 / qcomp=0.60 / qpmin=0 / qpmax=51 / qpstep=4 / cplxblur=20.0 / qblur=0.5 / ipratio=1.40 / pbratio=1.30
Default : Yes
Forced : No

Audio
ID : 2
Format : AAC
Format/Info : Advanced Audio Codec
Format profile : LC
Codec ID : A_AAC
Duration : 2 h 26 min
Bit rate : 192 kb/s
Channel(s) : 2 channels
Channel positions : Front: L R
Sampling rate : 48.0 kHz
Frame rate : 46.875 FPS (1024 spf)
Compression mode : Lossy
Delay relative to video : 9 ms
Stream size : 201 MiB (24%)
Language : English
Default : Yes
Forced : No

Trailer
Lista plików Show/Hide [Pokaż/Ukryj]
Trackery
Tracker URLSeedówPeerówPobrań
http://p2p-torrent.ru.tf/announce.php?pid=b25d1a88159deed69a21842
udp://9.rarbg.me:2710/announce110
udp://tracker.opentrackr.org:1337/announce101
udp://tracker.coppersurfer.tk:6969/announce100
udp://explodie.org:6969/announce100
udp://tracker.torrent.eu.org:451/announce100
udp://ipv4.tracker.harry.lu:80/announce000

Komentarze

Brak komentarzy!

Dodawanie komentarza
Komentujesz torrenta:
Człowiek w ogniu / Man on Fire (2004) [BRRip x265] [WAR] [ENG]

NAJCZĘŚCIEJ POBIERANE