Kategorie
Ranking
RSS
Programy

Statystyki
Użytkowników:
Zarejestrowanych wczoraj:
Zarejestrowanych dzisiaj:
Torrentów:
Dodanych wczoraj:
Dodanych dzisiaj:
Warezów:
Dodanych wczoraj:
Dodanych dzisiaj:
129,523
52
27
135,035
66
49
10,506
1
0
Ostatnie 30
Popularne
w Październiku
==Torrent==
Kategoria: TV/Seriale » Talk show


Dodał: tomysparow
Data dodania:
2018-11-30 01:59:31
Rozmiar: 1.88 GB
Seedów: 0
Peerów: 0
Pobrano: 209 razy
Kondycja:






SNL Polska Weekend Update [S01E01-05] [720p] [WEBRip] [x264-666] [PL]

==================
...::: INFO :::...
==================

Produkcja: Polska
Gatunek: Rozrywka
Premiera: 28.10.2018
Platforma VOD: SHOWMAX

==================
...::: OPIS :::...
==================

Po kilkumiesięcznej przerwie widzowie znowu będą mogli nacieszyć się cotygodniową emisją "SNL Polska - Weekend Update.
Prawdopodobnie najbardziej szyderczy dziennik informacyjny w kraju wraca na ekrany, a prowadzący już zacierają ręce

==============
...::: OBSADA :::...
==============

Laura Breszka,
Kamil Pruban.
Magdalena Smalara,
Sebastian Stankiewicz,
Monika Babula,
Michał Meyer,
Karolina Piechota

=======================
...::: DANE TECHNICZNE :::...
=======================

Format : Matroska
Format version : Version 4
File size : 432 MiB
Duration : 18 min 27 s
Overall bit rate : 3 275 kb/s
Encoded date : UTC 2018-11-25T17:05:12Z
Writing application : HandBrake 1.0.7 2017040900
Writing library : Lavf57.7.2

Video
ID : 1
Format : AVC
Format/Info : Advanced Video Codec
Format profile : High@L4.1
Format settings : CABAC / 4 Ref Frames
Format settings, CABAC : Yes
Format settings, ReFrames : 4 frames
Codec ID : V_MPEG4/ISO/AVC
Duration : 18 min 27 s
Bit rate : 3 000 kb/s
Width : 1 280 pixels
Height : 720 pixels
Display aspect ratio : 16:9
Frame rate mode : Constant
Frame rate : 25.000 FPS
Color space : YUV
Chroma subsampling : 4:2:0
Bit depth : 8 bits
Scan type : Progressive
Bits/(Pixel*Frame) : 0.130
Stream size : 390 MiB (90%)
Writing library : x264 core 148 r2708 86b7198
Encoding settings : cabac=1 / ref=1 / deblock=1:-1:-1 / analyse=0x3:0x3 / me=dia / subme=1 / psy=1 / psy_rd=1.00:0.15 / mixed_ref=0 / me_range=16 / chroma_me=1 / trellis=0 / 8x8dct=1 / cqm=0 / deadzone=21,11 / fast_pskip=1 / chroma_qp_offset=0 / threads=6 / lookahead_threads=1 / sliced_threads=0 / nr=0 / decimate=1 / interlaced=0 / bluray_compat=0 / constrained_intra=0 / bframes=3 / b_pyramid=2 / b_adapt=1 / b_bias=0 / direct=1 / weightb=1 / open_gop=0 / weightp=1 / keyint=250 / keyint_min=25 / scenecut=40 / intra_refresh=0 / rc_lookahead=0 / rc=abr / mbtree=0 / bitrate=3000 / ratetol=1.0 / qcomp=0.60 / qpmin=0 / qpmax=69 / qpstep=4 / vbv_maxrate=62500 / vbv_bufsize=78125 / nal_hrd=none / filler=0 / ip_ratio=1.40 / pb_ratio=1.30 / aq=1:1.00
Default : Yes
Forced : No
Color range : Limited
Color primaries : BT.709
Transfer characteristics : BT.709
Matrix coefficients : BT.709

Audio
ID : 2
Format : AC-3
Format/Info : Audio Coding 3
Commercial name : Dolby Digital
Codec ID : A_AC3
Duration : 18 min 27 s
Bit rate mode : Constant
Bit rate : 256 kb/s
Channel(s) : 2 channels
Channel layout : L R
Sampling rate : 48.0 kHz
Frame rate : 31.250 FPS (1536 SPF)
Bit depth : 16 bits
Compression mode : Lossy
Delay relative to video : -5 ms
Stream size : 33.8 MiB (8%)
Title : Stereo
Service kind : Complete Main
Default : Yes
Forced : No

Lista plików Show/Hide [Pokaż/Ukryj]
Trackery
Tracker URLSeedówPeerówPobrań
http://tracker2.itzmx.com:6961/announce000
http://tracker.city9x.com:2710/announce000
http://open.kickasstracker.com/announce000
udp://tracker.pirateparty.gr:6969/announce000
udp://tracker.leechers-paradise.org:6969/announce000
udp://tracker.coppersurfer.tk:6969/announce000
udp://eddie4.nl:6969/announce000
udp://shadowshq.eddie4.nl:6969/announce000
Podobne Pliki

Komentarze

Brak komentarzy!

Dodawanie komentarza
Komentujesz torrenta:
SNL Polska Weekend Update [S01E01-05] [720p] [WEBRip] [x264-666] [PL]

NAJCZĘŚCIEJ POBIERANE