Kategorie
Ranking
RSS
Programy

Statystyki
Użytkowników:
Zarejestrowanych wczoraj:
Zarejestrowanych dzisiaj:
Torrentów:
Dodanych wczoraj:
Dodanych dzisiaj:
Warezów:
Dodanych wczoraj:
Dodanych dzisiaj:
107,874
37
2
210,735
120
4
12,474
41
0
Ostatnie 30
Popularne
w Maju
==Torrent==
Kategoria: TV/Seriale » Kryminalny


Dodał: Lukarusi
Data dodania:
2019-03-14 19:19:31
Rozmiar: 34.17 GB
Seedów: 117
Peerów: 31
Pobrano: 177 razy
Kondycja:









Odwróceni - Sezon 1 [1080p.WEB-DL.H.264.AC3] [PL]



produkcja: PL
gatunek: Kryminał, Sensacyjny, Gangsterski
reżyseria: Michał Gazda, Jacek Filipiak, Jarosław Sypniewski
scenariusz: Artur Kowalewski, Piotr Pytlakowski
zdjęcia: Tomasz Augustynek, Jan Holoubek
muzyka: Łukasz Targosz
czas trwania: ok. 40-49 min.



"Odwróceni" jest serialem sensacyjnym inspirowanym prawdziwymi wydarzeniami. Dobro i zło, miłość i zdrada, życie oraz śmierć to główne tematy serialu. "Odwróceni" to 13 odcinkowa historia o losach bezwzględnego gangstera i policjanta. Osoby z pozoru tak różne łączy jedna rzecz. Miłość i przywiązanie do rodziny, a co za tym idzie związane z nią poświęcenia. Główny bohater, podinspektor Sikora, zajmuje się rozpracowywaniem mafii pruszkowskiej i wołomińskiej. Jego celem jest posadzenie bandytów na ławie oskarżonych. Jednak aby tego dokonać, potrzebuje pomocy. Jedynym sposobem na jej uzyskanie jest współpraca z "Blachą". Czy jednak policjantowi uda się "odwrócić" groźnego przestępcę? A może to on sam zostanie "odwrócony" na stronę mafii? Serial "Odwróceni" pokazuje drugie oblicze stróżów prawa jak również gangsterów. Zabójstwa, kradzieże, pościgi i aresztowania to ich życie zawodowe. W domu czekają na nich rozterki, problemy i kochająca rodzina. Co okaże się dla nich ważniejsze? Czy "odwrócą" swoje życie na dobrą stronę?



Robert Więckiewicz - Jan "Blacha" Blachowski
Artur Żmijewski - Paweł Sikora
Małgorzata Foremniak - Mira Blachowska, żona "Blachy"
Anna Radwan - Joanna Sikora, żona Pawła
Andrzej Zieliński - Andrzej Basiak "Mnich"
Maciej Kozłowski - Roman Kraus "Szybki"
Andrzej Grabowski - Jarosław Kowalik "Kowal"
Janusz Chabior - Ryszard Nowak "Rysiek"
Szymon Bobrowski - Władysław Różycki "Skalpel"
Marian Dziędziel - Franciszek Żuk "Ptasiek"
Wojciech Zieliński - Arkadiusz Cyganik "Cyga"



Format : Matroska
Format version : Version 4 / Version 2
File size : 2.87 GiB
Duration : 48 min 48 s
Overall bit rate mode : Variable
Overall bit rate : 8 409 kb/s
Encoded date : UTC 2019-03-13 13:33:51

Video
ID : 1
Format : AVC
Format/Info : Advanced Video Codec
Format profile : High@L4.1
Format settings : CABAC / 4 Ref Frames
Format settings, CABAC : Yes
Format settings, ReFrames : 4 frames
Codec ID : V_MPEG4/ISO/AVC
Duration : 48 min 48 s
Bit rate mode : Variable
Bit rate : 8 023 kb/s
Maximum bit rate : 12.0 Mb/s
Width : 1 920 pixels
Height : 1 080 pixels
Display aspect ratio : 16:9
Frame rate mode : Constant
Frame rate : 25.000 FPS
Color space : YUV
Chroma subsampling : 4:2:0
Bit depth : 8 bits
Scan type : Progressive
Bits/(Pixel*Frame) : 0.155
Stream size : 2.74 GiB (95%)
Default : Yes
Forced : Yes
Color range : Limited
Color primaries : BT.709
Transfer characteristics : BT.709
Matrix coefficients : BT.709

Audio
ID : 2
Format : AC-3
Format/Info : Audio Coding 3
Commercial name : Dolby Digital
Codec ID : A_AC3
Duration : 48 min 48 s
Bit rate mode : Constant
Bit rate : 384 kb/s
Channel(s) : 2 channels
Channel layout : L R
Sampling rate : 48.0 kHz
Frame rate : 31.250 FPS (1536 SPF)
Bit depth : 16 bits
Compression mode : Lossy
Stream size : 134 MiB (5%)
Language : Polish
Service kind : Complete Main
Default : Yes
Forced : Yes

Lista plików Show/Hide [Pokaż/Ukryj]
Trackery
Tracker URLSeedówPeerówPobrań
http://tracker1.itzmx.com:8080/announce401317
udp://9.rarbg.com:2740/announce103988
udp://9.rarbg.me:2790/announce103988
udp://tracker.leechers-paradise.org:6969/announce10222
udp://tracker.openbittorrent.com:80/announce10210
udp://sugoi.pomf.se:80/announce10210
udp://tracker.pomf.se:80/announce10210
udp://exodus.desync.com:6969/announce92352
http://tracker.torrentyorg.pl/announce82176
http://tracker.filetracker.pl:8089/announce000
http://mgtracker.org:2710/announce000
udp://poloniumsurfer.tk:6969/announce000
udp://torrent.gresille.org:80/announce000
udp://eddie4.nl:6969/announce000
udp://tracker.glotorrents.com:6969/announce000
http://tracker.tfile.me/announce000
http://retracker.omsk.ru:2710/announce000
udp://shadowshq.eddie4.nl:6969/announce000
http://tracker.city9x.com:2710/announce000
http://tracker.vanitycore.co:6969/announce000
udp://tracker.istole.it:80/announce000
udp://tracker.prq.to/announce000
udp://tracker.torrentbay.to:6969/announce000
udp://t1.pow7.com/announce000
http://agusiq-torrents.pl:6969/announce000
udp://tracker.publicbt.com/announce000
udp://10.rarbg.com/announce000
Podobne Pliki

Komentarze

Brak komentarzy!

Dodawanie komentarza
Komentujesz torrenta:
Odwróceni - Sezon 1 [1080p.WEB-DL.H.264.AC3] [PL]

NAJCZĘŚCIEJ POBIERANE