Kategorie
Ranking
RSS
Programy

Statystyki
Użytkowników:
Zarejestrowanych wczoraj:
Zarejestrowanych dzisiaj:
Torrentów:
Dodanych wczoraj:
Dodanych dzisiaj:
Warezów:
Dodanych wczoraj:
Dodanych dzisiaj:
106,467
44
1
208,588
120
1
11,639
33
11
Ostatnie 30
Popularne
w Kwietniu
==Torrent==
Kategoria: TV/Seriale » Kryminalny


Dodał: Lukarusi
Data dodania:
2019-04-01 23:17:13
Rozmiar: 968.08 MB
Seedów: 1298
Peerów: 51
Pobrano: 794 razy
Kondycja:









Odwróceni. Ojcowie i córki S02E07 [720p.WEBRip.H.264.AC3] [PL]



produkcja: PL
gatunek: Kryminał, Dramat
reżyseria: Michał Gazda
scenariusz: Artur Kowalewski, Wojciech Zimiński
zdjęcia: Tomasz Augustynek
muzyka: Antoni Komasa-Łazarkiewicz
czas trwania: ok. 41 min.



Blacha i Sikora nie utrzymują już ze sobą kontaktu. "Pruszkowscy" gangsterzy są na wolności, odsiedzieli swoje wyroki i stali się legalni. Stary "Pruszków" nie istnieje. Ten, który go zlikwidował - komisarz Paweł Sikora - jest emerytowanym policjantem. Córka Sikory, Lidka poszła w ślady ojca i jest policjantką w Komendzie Stołecznej. Odwrócony przez Sikorę gangster Blacha został biznesmenem i świadkiem koronnym - celebrytą. Wydał kilkanaście książek o mafii i spija śmietankę ze swojej dawnej złej sławy. Jego córka Kasia właśnie skończyła z wyróżnieniem prawo. Jednak nierozwiązane wydarzenia z przeszłości niespodziewanie wracają do bohaterów. Śledztwo w sprawie serii brutalnych morderstw, które mogą mieć związek z przeszłością Blachy i Sikory, prowadzi córka Sikory - Lidka - razem ze swoim partnerem w policji Latą. Komisarz - emeryt Paweł Sikora i gangster - literat Blacha muszą znów współpracować, żeby przeżyć. Obaj doświadczą najbardziej elementarnego uczucia człowieka - lęku o własne dzieci.



Robert Więckiewicz - Jan "Blacha" Blachowski
Artur Żmijewski - Paweł Sikora
Joanna Balasz - Lidia Sikora
Eliza Rycembel - Katarzyna Blachowska
Tomasz Schuchardt - Policjant Lato
Małgorzata Foremniak - Mira Blachowska
Anna Dereszowska - Laura Różycka
Wojciech Zieliński - Arkadiusz Cyganik "Cyga"



Format : Matroska
Format version : Version 4 / Version 2
File size : 968 MiB
Duration : 41 min 40 s
Overall bit rate mode : Constant
Overall bit rate : 3 248 kb/s
Encoded date : UTC 2019-04-01 21:10:48

Video
ID : 1
Format : AVC
Format/Info : Advanced Video Codec
Format profile : High@L3.1
Format settings : CABAC / 5 Ref Frames
Format settings, CABAC : Yes
Format settings, ReFrames : 5 frames
Codec ID : V_MPEG4/ISO/AVC
Duration : 41 min 40 s
Bit rate mode : Constant
Bit rate : 3 000 kb/s
Width : 1 280 pixels
Height : 720 pixels
Display aspect ratio : 16:9
Frame rate mode : Constant
Frame rate : 25.000 FPS
Color space : YUV
Chroma subsampling : 4:2:0
Bit depth : 8 bits
Scan type : Progressive
Bits/(Pixel*Frame) : 0.130
Stream size : 853 MiB (88%)
Default : Yes
Forced : Yes

Audio
ID : 2
Format : AC-3
Format/Info : Audio Coding 3
Commercial name : Dolby Digital
Codec ID : A_AC3
Duration : 41 min 40 s
Bit rate mode : Constant
Bit rate : 384 kb/s
Channel(s) : 2 channels
Channel layout : L R
Sampling rate : 48.0 kHz
Frame rate : 31.250 FPS (1536 SPF)
Bit depth : 16 bits
Compression mode : Lossy
Stream size : 114 MiB (12%)
Language : Polish
Service kind : Complete Main
Default : Yes
Forced : Yes

Lista plikówShow/Hide [Pokaż/Ukryj]
Trackery
Tracker URLSeedówPeerówPobrań
http://tracker1.itzmx.com:8080/announce77729221
udp://tracker.openbittorrent.com:80/announce72310
udp://sugoi.pomf.se:80/announce72310
udp://tracker.pomf.se:80/announce72310
udp://9.rarbg.com:2740/announce7135342
udp://9.rarbg.me:2790/announce7135342
udp://tracker.leechers-paradise.org:6969/announce7131454
udp://exodus.desync.com:6969/announce5431607
http://tracker.torrentyorg.pl/announce381840
udp://tracker.publicbt.com/announce000
udp://tracker.glotorrents.com:6969/announce000
http://tracker.city9x.com:2710/announce000
http://agusiq-torrents.pl:6969/announce000
http://tracker.filetracker.pl:8089/announce000
udp://poloniumsurfer.tk:6969/announce000
udp://torrent.gresille.org:80/announce000
udp://eddie4.nl:6969/announce000
http://mgtracker.org:2710/announce000
http://tracker.tfile.me/announce000
udp://t1.pow7.com/announce000
udp://shadowshq.eddie4.nl:6969/announce000
http://retracker.omsk.ru:2710/announce000
http://tracker.vanitycore.co:6969/announce000
udp://tracker.istole.it:80/announce000
udp://tracker.prq.to/announce000
udp://tracker.torrentbay.to:6969/announce000
udp://10.rarbg.com/announce000

Komentarze

Brak komentarzy!

Dodawanie komentarza
Komentujesz torrenta:
Odwróceni. Ojcowie i córki S02E07 [720p.WEBRip.H.264.AC3] [PL]

NAJCZĘŚCIEJ POBIERANE