Game of Thrones S08E05-06 [1080p.WEB-DL.H.264.AC3] [Lektor PL] [ENG+Napisy PL]
Kategorie
Ranking
RSS
Programy

Statystyki
Użytkowników:
Zarejestrowanych wczoraj:
Zarejestrowanych dzisiaj:
Torrentów:
Dodanych wczoraj:
Dodanych dzisiaj:
Warezów:
Dodanych wczoraj:
Dodanych dzisiaj:
111,279
66
1
217,493
100
1
14,166
13
0
Ostatnie 30
Popularne
w Sierpniu
==Torrent==
Kategoria: TV/Seriale » Fantasy


Dodał: Lukarusi
Data dodania:
2019-05-21 21:10:54
Rozmiar: 9.38 GB
Seedów: 213
Peerów: 190
Pobrano: 46 razy
Kondycja:









Game of Thrones S08E05-06 [1080p.WEB-DL.H.264.AC3] [Lektor PL] [ENG+Napisy PL]



produkcja: USA
gatunek: Dramat, Fantasy, Przygodowy
reżyseria: Alan Taylor, Mark Mylod, Jeremy Podeswa, Matt Shakman
scenariusz: David Benioff, D.B. Weiss
zdjęcia: Jonathan Freeman, Robert McLachlan
muzyka: Ramin Djawadi
czas trwania: ok. 1h 18 min.



Walka o Żelazny Tron się zaostrza. Każdy z mieszkańców krainy Westeros pragnie objąć władzę nad siedmioma królestwami. Wszystkie rody, od knującego intrygi Południa, przez barbarzyński Wschód i mroźną Północ, toczą brutalną walkę o władzę. Każdy z zaangażowanych w rywalizację wie, że nie może kierować się sentymentami, jeśli chce zwyciężyć. Dla wielu z nich dążenie do objęcia tronu jest także sposobem na przetrwanie.



Peter Dinklage - Tyrion Lannister
Nikolaj Coster-Waldau - Jaime Lannister
Lena Headey - Cersei Lannister
Emilia Clarke - Daenerys Targaryen
Kit Harington - Jon Snow
Aidan Gillen - Petyr Baelish
Liam Cunningham - Davos Seaworth
Indira Varma - Ellaria Sand
Conleth Hill - Varys
John Bradley - Samwell Tarly
Sophie Turner - Sansa Stark
Maisie Williams - Arya Stark



Format : Matroska
Format version : Version 4 / Version 2
File size : 4.71 GiB
Duration : 1 h 18 min
Overall bit rate mode : Variable
Overall bit rate : 8 582 kb/s
Encoded date : UTC 2019-05-21 18:56:03

Video
ID : 1
Format : AVC
Format/Info : Advanced Video Codec
Format profile : High@L4
Format settings : CABAC / 4 Ref Frames
Format settings, CABAC : Yes
Format settings, ReFrames : 4 frames
Codec ID : V_MPEG4/ISO/AVC
Duration : 1 h 18 min
Bit rate mode : Variable
Bit rate : 7 812 kb/s
Maximum bit rate : 12.0 Mb/s
Width : 1 920 pixels
Height : 1 080 pixels
Display aspect ratio : 16:9
Frame rate mode : Constant
Frame rate : 23.976 (24000/1001) FPS
Color space : YUV
Chroma subsampling : 4:2:0
Bit depth : 8 bits
Scan type : Progressive
Bits/(Pixel*Frame) : 0.157
Stream size : 4.29 GiB (91%)
Color range : Limited
Color primaries : BT.709
Transfer characteristics : BT.709
Matrix coefficients : BT.709

Audio 1
ID : 2
Format : AC-3
Format/Info : Audio Coding 3
Commercial name : Dolby Digital
Codec ID : A_AC3
Duration : 1 h 18 min
Bit rate mode : Constant
Bit rate : 384 kb/s
Channel(s) : 2 channels
Channel layout : L R
Sampling rate : 48.0 kHz
Frame rate : 31.250 FPS (1536 SPF)
Bit depth : 16 bits
Compression mode : Lossy
Stream size : 216 MiB (4%)
Language : Polish
Service kind : Complete Main
Default : Yes
Forced : Yes

Audio 2
ID : 3
Format : AC-3
Format/Info : Audio Coding 3
Commercial name : Dolby Digital
Codec ID : A_AC3
Duration : 1 h 18 min
Bit rate mode : Constant
Bit rate : 384 kb/s
Channel(s) : 6 channels
Channel layout : L R C LFE Ls Rs
Sampling rate : 48.0 kHz
Frame rate : 31.250 FPS (1536 SPF)
Bit depth : 16 bits
Compression mode : Lossy
Stream size : 216 MiB (4%)
Language : English
Service kind : Complete Main
Default : No
Forced : No

Text 1
ID : 4
Format : UTF-8
Codec ID : S_TEXT/UTF8
Codec ID/Info : UTF-8 Plain Text
Duration : 1 h 12 min
Bit rate : 32 b/s
Count of elements : 414
Stream size : 17.2 KiB (0%)
Title : Grupa Hatak
Language : Polish
Default : No
Forced : No

Text 2
ID : 5
Format : UTF-8
Codec ID : S_TEXT/UTF8
Codec ID/Info : UTF-8 Plain Text
Duration : 1 h 10 min
Bit rate : 28 b/s
Count of elements : 495
Stream size : 15.0 KiB (0%)
Title : HBO Orginal
Language : Polish
Default : No
Forced : No

Lista plików Show/Hide [Pokaż/Ukryj]
Trackery
Tracker URLSeedówPeerówPobrań
http://tracker1.itzmx.com:8080/announce989731
udp://tracker.openbittorrent.com:80/announce171410
udp://sugoi.pomf.se:80/announce171410
udp://tracker.pomf.se:80/announce171410
udp://9.rarbg.com:2740/announce161476
udp://9.rarbg.me:2790/announce161476
udp://tracker.leechers-paradise.org:6969/announce161327
udp://exodus.desync.com:6969/announce161039
udp://tracker.publicbt.com/announce000
http://tracker.tfile.me/announce000
http://tracker.city9x.com:2710/announce000
http://agusiq-torrents.pl:6969/announce000
http://tracker.filetracker.pl:8089/announce000
udp://poloniumsurfer.tk:6969/announce000
udp://torrent.gresille.org:80/announce000
udp://eddie4.nl:6969/announce000
udp://tracker.glotorrents.com:6969/announce000
http://mgtracker.org:2710/announce000
udp://t1.pow7.com/announce000
udp://shadowshq.eddie4.nl:6969/announce000
http://retracker.omsk.ru:2710/announce000
http://tracker.torrentyorg.pl/announce000
http://tracker.vanitycore.co:6969/announce000
udp://tracker.istole.it:80/announce000
udp://tracker.prq.to/announce000
udp://tracker.torrentbay.to:6969/announce000
udp://10.rarbg.com/announce000

Komentarze
<< Poprzednia      Następna >>
1 - 2
  • Napisano dnia 2019-05-21 22:57:24 GMT
    krzysztof07
    Dzięki piękne za cały sezon w najlepszej jakości.
  • Napisano dnia 2019-05-29 10:58:18 GMT
    bazi1980
    od 3 odc serial zabity przez zły scenariusz i zakończenie fajnie że to Bran został królem ale głupio że DANY zgineła z rok JONA
Przeglądaj
1 - 2
<< Poprzednia      Następna >>
Dodawanie komentarza
Komentujesz torrenta:
Game of Thrones S08E05-06 [1080p.WEB-DL.H.264.AC3] [Lektor PL] [ENG+Napisy PL]

NAJCZĘŚCIEJ POBIERANE