Kategorie
Ranking
RSS
Programy

Statystyki
Użytkowników:
Zarejestrowanych wczoraj:
Zarejestrowanych dzisiaj:
Torrentów:
Dodanych wczoraj:
Dodanych dzisiaj:
Warezów:
Dodanych wczoraj:
Dodanych dzisiaj:
111,290
40
0
103,506
96
0
5,799
19
0
Ostatnie 30
Popularne
w Grudniu
==Torrent==
Kategoria: Filmy x264/h264 » Akcja


Dodał: vantablack
Data dodania:
2019-11-12 13:01:55
Rozmiar: 3.91 GB
Seedów: 1582
Peerów: 196
Pobrano: 99 razy
Kondycja:









Świat.w.Ogniu.(Angel.Has.Fallen).(2019).EN.1080p.WEB-DL.DD5.1.[x264]-FGT



Reżyseria: Ric Roman Waugh
Scenariusz: Matt Cook, Ric Roman Waugh
Gatunek: Thriller, Akcja
Produkcja: USA
Premiera: 23 sierpnia 2019 (Polska) 21 sierpnia 2019 (świat)

Czas trwania: 1 godz. 54 min.



Głównym bohaterem filmu sensacyjnego "Świat w ogniu" jest tajny agent Mike Banning, któremu już dwukrotnie udało się uratować świat. Tym razem mężczyzna będzie musiał zadbać o siebie, ponieważ został oskarżony o współudział w zamachu na prezydenta Stanów Zjednoczonych.



Gerard Butler .... Mike Banning
Morgan Freeman .... Allan Trumbull
Jada Pinkett Smith .... Agentka Thompson
Lance Reddick .... Dyrektor Secret Service David Gentry
Tim Blake Nelson .... Wiceprezydent Kirby
Piper Perabo .... Leah Banning
Nick Nolte .... Clay Banning
Danny Huston .... Wade Jennings



Video
ID : 1
Format : AVC
Format/Info : Advanced Video Codec
Format profile : High@L4
Format settings : CABAC / 5 Ref Frames
Format settings, CABAC : Yes
Format settings, Reference frames : 5 frames
Codec ID : V_MPEG4/ISO/AVC
Duration : 2 h 1 min
Bit rate : 4 243 kb/s
Width : 1 920 pixels
Height : 800 pixels
Display aspect ratio : 2.40:1
Frame rate mode : Constant
Frame rate : 23.976 (23976/1000) FPS
Color space : YUV
Chroma subsampling : 4:2:0
Bit depth : 8 bits
Scan type : Progressive
Bits/(Pixel*Frame) : 0.115
Stream size : 3.59 GiB (92%)
Title : Angel.Has.Fallen.2019.1080p.WEB-DL.DD5.1.H264-FGT
Language : English
Default : Yes
Forced : No
Color range : Limited
Color primaries : BT.709
Transfer characteristics : BT.709
Matrix coefficients : BT.709

Audio
ID : 2
Format : AC-3
Format/Info : Audio Coding 3
Commercial name : Dolby Digital
Codec ID : A_AC3
Duration : 2 h 1 min
Bit rate mode : Constant
Bit rate : 384 kb/s
Channel(s) : 6 channels
Channel layout : L R C LFE Ls Rs
Sampling rate : 48.0 kHz
Frame rate : 31.250 FPS (1536 SPF)
Bit depth : 16 bits
Compression mode : Lossy
Stream size : 332 MiB (8%)
Title : Angel.Has.Fallen.2019.1080p.WEB-DL.DD5.1.H264-FGT
Language : English
Service kind : Complete Main
Default : Yes
Forced : No

Text
ID : 3
Format : UTF-8
Codec ID : S_TEXT/UTF8
Codec ID/Info : UTF-8 Plain Text
Duration : 1 h 52 min
Bit rate : 85 b/s
Count of elements : 1580
Stream size : 70.8 KiB (0%)
Language : English
Default : Yes
Forced : No

Trailer
Lista plików Show/Hide [Pokaż/Ukryj]
Trackery
Tracker URLSeedówPeerówPobrań
udp://9.rarbg.to:2720/announce79198225953
udp://9.rarbg.me:2790/announce79198225953
http://tracker.trackerfix.com:80/announce000

Komentarze
<< Poprzednia      Następna >>
1 - 1
  • Napisano dnia 2019-11-14 23:08:22 GMT
    monar123
    a napisy som? bo ja za darmo to biere
  • Ponad 2 tygodnie temu, 2019-11-15
    w nazwie torrenta jest napisane, że wersja EN, czyli bez napisów
    - [Raport]
  • Ponad 2 tygodnie temu, 2019-11-15
    Zawsze możesz w razie wątpliwości zerknąć do danych technicznych,czyli audio i language
    - [Raport]
Przeglądaj
1 - 1
<< Poprzednia      Następna >>
Dodawanie komentarza
Komentujesz torrenta:
Świat.w.Ogniu.(Angel.Has.Fallen).(2019).EN.1080p.WEB-DL.DD5.1.[x264]-FGT

NAJCZĘŚCIEJ POBIERANE