Kategorie
Ranking
RSS
Programy

Statystyki
Użytkowników:
Zarejestrowanych wczoraj:
Zarejestrowanych dzisiaj:
Torrentów:
Dodanych wczoraj:
Dodanych dzisiaj:
Warezów:
Dodanych wczoraj:
Dodanych dzisiaj:
131,947
81
40
139,146
77
61
11,067
21
15
Ostatnie 30
Popularne
w Grudniu
==Torrent==
Kategoria: Muzyka » Rock


Dodał: Beatrix
Data dodania:
2020-10-28 10:12:15
Rozmiar: 847.16 MB
Seedów: 330
Peerów: 155
Pobrano: 19 razy
Kondycja:






Eagles - Hotel California (1976) (2014 PBTHAL LP 24-96) [FLAC]



Eagles
Hotel California (1976)
FLAC LOSSLESS 24bit-96kHz
2014 PBTHAL Vinyl


allmusic.com...

With five number one singles, 14 Top 40 hits, and four number one albums, the Eagles were among the most successful recording artists of the 1970s. At the end of the 20th century, two of those albums -- Their Greatest Hits (1971-1975) and Hotel California -- ranked among the ten best-selling albums ever.


foobar2000 1.4.3 / Dynamic Range Meter 1.1.1
log date: 2020-10-27 16:26:55

--------------------------------------------------------------------------------
Analyzed: Eagles / Hotel California
--------------------------------------------------------------------------------

DR Peak RMS Duration Track
--------------------------------------------------------------------------------


DR15 -2.09 dB -20.28 dB 6:30 01-Hotel California
DR13 -2.73 dB -19.89 dB 5:04 02-New Kid In Town
DR15 -0.70 dB -18.84 dB 4:46 03-Life In The Fast Lane
DR13 -4.67 dB -22.07 dB 4:56 04-Wasted Time
DR11 -7.99 dB -23.33 dB 1:25 05-Wasted Time (Reprise)
DR13 -2.25 dB -18.84 dB 4:09 06-Victim Of Love
DR16 -3.14 dB -22.90 dB 3:59 07-Pretty Maids All In A Row
DR14 -1.22 dB -18.57 dB 5:10 08-Try And Love Again
DR13 -2.76 dB -20.12 dB 7:24 09-The Last Resort

Number of tracks: 9
Official DR value: DR14

Samplerate: 96000 Hz
Channels: 2
Bits per sample: 24
Bitrate: 2611 kbps
Codec: FLAC

Lista plików Show/Hide [Pokaż/Ukryj]
Trackery
Tracker URLSeedówPeerówPobrań
http://tracker.opentrackr.org:1337/announce8532390
udp://tracker.openbittorrent.com:80/announce8532390
udp://tracker.internetwarriors.net:1337/announce5628199
udp://exodus.desync.com:6969/announce4020183
udp://tracker.torrent.eu.org:451/announce3624200
udp://explodie.org:6969/announce28190
udp://denis.stalker.upeer.me:6969/announce000
udp://tracker.coppersurfer.tk:6969/announce000
udp://tracker.leechers-paradise.org:6969/announce000
Podobne Pliki

Komentarze

Brak komentarzy!

Dodawanie komentarza
Komentujesz torrenta:
Eagles - Hotel California (1976) (2014 PBTHAL LP 24-96) [FLAC]

NAJCZĘŚCIEJ POBIERANE