Kategorie
Ranking
RSS
Programy

Statystyki
Użytkowników:
Zarejestrowanych wczoraj:
Zarejestrowanych dzisiaj:
Torrentów:
Dodanych wczoraj:
Dodanych dzisiaj:
Warezów:
Dodanych wczoraj:
Dodanych dzisiaj:
131,787
36
2
138,908
98
10
11,011
20
0
Ostatnie 30
Popularne
w Grudniu
==Torrent==
Kategoria: Muzyka » Metal


Dodał: Beatrix
Data dodania:
2020-10-29 10:07:56
Rozmiar: 1.21 GB
Seedów: 76
Peerów: 149
Pobrano: 10 razy
Kondycja:






Pantera - Vulgar Display Of Power (1992) (PBTHAL LP 24-96 FLAC)



Pantera
Vulgar Display Of Power (1992)
FLAC LOSSLESS 24bit-96kHz
PBTHAL Vinyl Rip


allmusic.com...

The preeminent metal band of the early to mid-'90s, Pantera put to rest any and all remnants of the '80s metal scene, almost single-handedly demolishing any notion that hair metal, speed metal, power metal, et al., were anything but passé. Loathe to admit it, the Texas band had in fact been one of those '80s metal bands, releasing fairly unsuccessful (and later disowned) glam-inspired music throughout much of the decade. The about-face came with the addition of vocalist Phil Anselmo, and the key turning point was the band's major-label debut, Cowboys from Hell (1990). Pantera's mainstream breakthrough came next with Vulgar Display of Power (1992), their second major-label album, which thrust the band to the forefront of the metal scene, alongside such veteran bands as Metallica, Megadeth, Slayer, and Anthrax, as well as fellow up-and-comers Sepultura and White Zombie.


foobar2000 1.4.3 / Dynamic Range Meter 1.1.1
log date: 2020-10-26 19:58:23

--------------------------------------------------------------------------------
Analyzed: Pantera / Vulgar Display Of Power
--------------------------------------------------------------------------------

DR Peak RMS Duration Track
--------------------------------------------------------------------------------



DR12 -0.70 dB -13.58 dB 3:57 01-Mouth For War
DR12 -1.46 dB -14.77 dB 3:58 02-A New Level
DR12 -1.73 dB -15.91 dB 5:15 03-Walk
DR11 -3.13 dB -15.07 dB 2:48 04-Fucking Hostile
DR13 -0.70 dB -17.59 dB 6:33 05-This Love
DR11 -2.75 dB -15.81 dB 4:37 06-Rise
DR12 -0.70 dB -14.03 dB 4:51 07-No Good (Attack The Radical)
DR11 -0.70 dB -13.58 dB 5:00 08-Live In A Hole
DR12 -0.70 dB -14.02 dB 5:27 09-Regular People (Conceit)
DR12 -0.70 dB -14.01 dB 4:40 10-By Demons Be Driven
DR12 -0.73 dB -14.58 dB 5:47 11-Hollow

Number of tracks: 11
Official DR value: DR12

Samplerate: 96000 Hz
Channels: 2
Bits per sample: 24
Bitrate: 3312 kbps
Codec: FLAC

Lista plików Show/Hide [Pokaż/Ukryj]
Trackery
Tracker URLSeedówPeerówPobrań
http://tracker.opentrackr.org:1337/announce162744
udp://tracker.openbittorrent.com:80/announce162744
udp://tracker.coppersurfer.tk:6969/announce121731
udp://tracker.internetwarriors.net:1337/announce92021
udp://tracker.torrent.eu.org:451/announce81524
udp://exodus.desync.com:6969/announce61520
udp://tracker.leechers-paradise.org:6969/announce51517
udp://explodie.org:6969/announce4130
udp://denis.stalker.upeer.me:6969/announce000
Podobne Pliki

Komentarze

Brak komentarzy!

Dodawanie komentarza
Komentujesz torrenta:
Pantera - Vulgar Display Of Power (1992) (PBTHAL LP 24-96 FLAC)

NAJCZĘŚCIEJ POBIERANE