Kategorie
Ranking
RSS
Programy

Statystyki
Użytkowników:
Zarejestrowanych wczoraj:
Zarejestrowanych dzisiaj:
Torrentów:
Dodanych wczoraj:
Dodanych dzisiaj:
Warezów:
Dodanych wczoraj:
Dodanych dzisiaj:
135,403
49
9
144,784
94
24
11,927
36
0
Ostatnie 30
Popularne
w Styczniu
==Torrent==
Kategoria: Muzyka » Rock


Dodał: Beatrix
Data dodania:
2020-11-29 19:52:12
Rozmiar: 860.41 MB
Seedów: 257
Peerów: 89
Pobrano: 10 razy
Kondycja:






INXS - Listen Like Thieves (1985) (PBTHAL LP 24-96) [FLAC]



INXS
Listen Like Thieves (1985)
FLAC LOSSLESS 24bit-96kHz
PBTHAL Vinyl Rip


allmusic.com...

INXS hailed from the pubs of Australia, which is part of the reason the band never comfortably fit in with new wave. Even when they branched out into synth pop on their early recordings, they were underpinned by a hard, Stonesy beat and the Jagger-esque strut of lead singer Michael Hutchence. Ultimately, these were the very things that made INXS into international superstars in the late '80s. By that time, the group had harnessed its hard rock, dance, and new wave influences into a sleek, stylish groove.


foobar2000 1.4.3 / Dynamic Range Meter 1.1.1
log date: 2020-11-25 16:06:25

--------------------------------------------------------------------------------
Analyzed: INXS / Listen Like Thieves
--------------------------------------------------------------------------------

DR Peak RMS Duration Track
--------------------------------------------------------------------------------



DR12 -0.70 dB -15.05 dB 3:37 01-What You Need
DR12 -2.10 dB -15.48 dB 3:48 02-Listen Like Thieves
DR12 -2.74 dB -16.13 dB 3:57 03-Kiss The Dirt (Falling Down The Mountain)
DR12 -2.13 dB -16.43 dB 3:08 04-Shine Like It Does
DR12 -2.58 dB -16.03 dB 2:44 05-Good + Bad Times
DR11 -0.79 dB -13.14 dB 2:50 06-Biting Bullets
DR12 -1.41 dB -14.61 dB 3:11 07-This Time
DR13 -1.08 dB -17.53 dB 2:27 08-Three Sisters
DR12 -0.86 dB -14.35 dB 5:00 09-Same Direction
DR11 -1.83 dB -14.94 dB 3:07 10-One x One
DR12 -0.70 dB -14.66 dB 3:36 11-Red Red Sun

Number of tracks: 11
Official DR value: DR12

Samplerate: 96000 Hz
Channels: 2
Bits per sample: 24
Bitrate: 3270 kbps
Codec: FLAC

Lista plików Show/Hide [Pokaż/Ukryj]
Trackery
Tracker URLSeedówPeerówPobrań
http://tracker.opentrackr.org:1337/announce5923271
udp://tracker.openbittorrent.com:80/announce5922271
udp://exodus.desync.com:6969/announce3911124
udp://tracker.torrent.eu.org:451/announce3813141
udp://tracker.leechers-paradise.org:6969/announce3610118
udp://explodie.org:6969/announce26100
udp://denis.stalker.upeer.me:6969/announce000
udp://tracker.coppersurfer.tk:6969/announce000
udp://tracker.internetwarriors.net:1337/announce000
Podobne Pliki

Komentarze

Brak komentarzy!

Dodawanie komentarza
Komentujesz torrenta:
INXS - Listen Like Thieves (1985) (PBTHAL LP 24-96) [FLAC]

NAJCZĘŚCIEJ POBIERANE