Kategorie
Ranking
RSS
Programy

Statystyki
Użytkowników:
Zarejestrowanych wczoraj:
Zarejestrowanych dzisiaj:
Torrentów:
Dodanych wczoraj:
Dodanych dzisiaj:
Warezów:
Dodanych wczoraj:
Dodanych dzisiaj:
135,141
63
67
144,371
91
116
11,807
0
1
Ostatnie 30
Popularne
w Styczniu
==Torrent==
Kategoria: Muzyka » Rock


Dodał: Beatrix
Data dodania:
2020-11-29 20:03:25
Rozmiar: 985.01 MB
Seedów: 212
Peerów: 152
Pobrano: 10 razy
Kondycja:






Genesis - Foxtrot (1972) (PBTHAL LP 24-96) [FLAC]



Genesis
Foxtrot (1972)
FLAC LOSSLESS 24bit-96kHz
PBTHAL Vinyl Rip


allmusic.com...

Foxtrot is where Genesis began to pull all of its varied inspirations into a cohesive sound -- which doesn't necessarily mean that the album is streamlined, for this is a group that always was grandiose even when they were cohesive, or even when they rocked, which they truly do for the first time here. Indeed, the startling thing about the opening "Watcher of the Skies" is that it's the first time that Genesis attacked like a rock band, playing with a visceral power. There's might and majesty here, and it, along with "Get 'Em Out by Friday," is the truest sign that Genesis has grown muscle without abandoning the whimsy.


foobar2000 1.4.3 / Dynamic Range Meter 1.1.1
log date: 2020-11-23 21:18:58

--------------------------------------------------------------------------------
Analyzed: Genesis / Foxtrot
--------------------------------------------------------------------------------

DR Peak RMS Duration Track
--------------------------------------------------------------------------------



DR12 -1.48 dB -17.55 dB 7:24 01-Watcher Of The Skies
DR13 -1.63 dB -19.92 dB 4:47 02-Time Table
DR13 -2.02 dB -19.65 dB 8:38 03-Get 'Em Out By Friday
DR11 -2.33 dB -18.02 dB 5:47 04-Can-Utility And The Coastliners
DR10 -8.67 dB -22.40 dB 1:44 05-Horizons
DR13 -0.70 dB -17.66 dB 22:58 06-Supper's Ready

Number of tracks: 6
Official DR value: DR12

Samplerate: 96000 Hz
Channels: 2
Bits per sample: 24
Bitrate: 2724 kbps
Codec: FLAC

Lista plików Show/Hide [Pokaż/Ukryj]
Trackery
Tracker URLSeedówPeerówPobrań
http://tracker.opentrackr.org:1337/announce5538263
udp://tracker.openbittorrent.com:80/announce5538263
udp://exodus.desync.com:6969/announce2922128
udp://tracker.torrent.eu.org:451/announce2820133
udp://tracker.leechers-paradise.org:6969/announce2518114
udp://explodie.org:6969/announce20160
udp://denis.stalker.upeer.me:6969/announce000
udp://tracker.coppersurfer.tk:6969/announce000
udp://tracker.internetwarriors.net:1337/announce000
Podobne Pliki

Komentarze
<< Poprzednia      Następna >>
1 - 2
  • Napisano dnia 2020-11-29 21:41:57 GMT
    Fallen Angel
    Świetna płyta!
  • Napisano dnia 2020-11-29 21:53:22 GMT
    Beatrix
    Fallen Angel pozdrawiam
Przeglądaj
1 - 2
<< Poprzednia      Następna >>
Dodawanie komentarza
Komentujesz torrenta:
Genesis - Foxtrot (1972) (PBTHAL LP 24-96) [FLAC]

NAJCZĘŚCIEJ POBIERANE