Kategorie
Ranking
RSS
Programy

Statystyki
Użytkowników:
Zarejestrowanych wczoraj:
Zarejestrowanych dzisiaj:
Torrentów:
Dodanych wczoraj:
Dodanych dzisiaj:
Warezów:
Dodanych wczoraj:
Dodanych dzisiaj:
134,854
72
28
143,864
152
77
11,772
40
0
Ostatnie 30
Popularne
w Styczniu
==Torrent==
Kategoria: Filmy x264/h264 » Komedia


Dodał: zibi6248
Data dodania:
2020-12-04 14:57:55
Rozmiar: 6.14 GB
Seedów: 0
Peerów: 0
Pobrano: 60 razy
Kondycja:






Chrzestna - Godmothered *2020* [MULTi.SUB.] [1080p] [DSNP] [WEBRip] [DDP5.1.Atmos] [x264-NOGRP] [Napisy PL] [zibi6248]



Produkcja: USA
Gatunek: Fantasy, Komedia, Świąteczny
Premiera: 4 December 2020 (UK)
Reżyseria: Sharon Maguire
Scenariusz: Kari Granlund, Melissa Stack
https://www.youtube.com/watch?v=KYWzEqX-J-4



Młoda i niewykwalifikowana wróżka chrzestna postanawia udowodnić swoją wartość, znajduje młodą dziewczynę, której prośba o pomoc została zignorowana.



★ Isla Fisher .... Mackenzie
★ Jillian Bell .... Eleanor
★ Santiago Cabrera .... Hugh
★ June Squibb .... Agnes
★ Mary Elizabeth Ellis .... Paula
★ Stephnie Weir .... Barb
★ Jane Curtin .... Moira
★ Utkarsh Ambudkar .... Grant



Video
ID : 1
Format : AVC
Format/Info : Advanced Video Codec
Format profile : High@L4
Format settings : CABAC / 4 Ref Frames
Format settings, CABAC : Yes
Format settings, Reference frames : 4 frames
Codec ID : V_MPEG4/ISO/AVC
Duration : 1 h 49 min
Bit rate mode : Variable
Bit rate : 7 237 kb/s
Maximum bit rate : 12.7 Mb/s
Width : 1 920 pixels
Height : 1 080 pixels
Display aspect ratio : 16:9
Frame rate mode : Constant
Frame rate : 23.976 (24000/1001) FPS
Color space : YUV
Chroma subsampling : 4:2:0
Bit depth : 8 bits
Scan type : Progressive
Bits/(Pixel*Frame) : 0.146
Stream size : 5.54 GiB (90%)
Default : Yes
Forced : No
Color range : Limited
Color primaries : BT.709
Transfer characteristics : BT.709
Matrix coefficients : BT.709

Audio
ID : 2
Format : E-AC-3 JOC
Format/Info : Enhanced AC-3 with Joint Object Coding
Commercial name : Dolby Digital Plus with Dolby Atmos
Codec ID : A_EAC3
Duration : 1 h 49 min
Bit rate mode : Constant
Bit rate : 768 kb/s
Channel(s) : 6 channels
Channel layout : L R C LFE Ls Rs
Sampling rate : 48.0 kHz
Frame rate : 31.250 FPS (1536 SPF)
Compression mode : Lossy
Stream size : 603 MiB (10%)
Title : English
Language : English
Service kind : Complete Main
Default : Yes
Forced : No
Complexity index : 16
Number of dynamic objects : 15
Bed channel count : 1 channel
Bed channel configuration : LFE

Text #1
ID : 3
Format : UTF-8
Codec ID : S_TEXT/UTF8
Codec ID/Info : UTF-8 Plain Text
Duration : 1 h 48 min
Bit rate : 59 b/s
Count of elements : 1259
Stream size : 47.6 KiB (0%)
Title : Dansk
Language : Danish
Default : No
Forced : No

Text #2
ID : 4
Format : UTF-8
Codec ID : S_TEXT/UTF8
Codec ID/Info : UTF-8 Plain Text
Duration : 1 h 48 min
Bit rate : 62 b/s
Count of elements : 1455
Stream size : 50.0 KiB (0%)
Title : Deutsch
Language : German
Default : No
Forced : No

Text #3
ID : 5
Format : UTF-8
Codec ID : S_TEXT/UTF8
Codec ID/Info : UTF-8 Plain Text
Duration : 1 h 41 min
Bit rate : 81 b/s
Count of elements : 1795
Stream size : 60.5 KiB (0%)
Title : English (SDH)
Language : English
Default : No
Forced : No

Text #4
ID : 6
Format : UTF-8
Codec ID : S_TEXT/UTF8
Codec ID/Info : UTF-8 Plain Text
Duration : 1 h 48 min
Bit rate : 63 b/s
Count of elements : 1552
Stream size : 51.0 KiB (0%)
Title : Español
Language : Spanish
Default : No
Forced : No

Text #5
ID : 7
Format : UTF-8
Codec ID : S_TEXT/UTF8
Codec ID/Info : UTF-8 Plain Text
Duration : 1 h 48 min
Bit rate : 61 b/s
Count of elements : 1571
Stream size : 49.3 KiB (0%)
Title : Español (Latinoamericano)
Language : Spanish
Default : No
Forced : No

Text #6
ID : 8
Format : UTF-8
Codec ID : S_TEXT/UTF8
Codec ID/Info : UTF-8 Plain Text
Duration : 1 h 48 min
Bit rate : 56 b/s
Count of elements : 1443
Stream size : 45.0 KiB (0%)
Title : Français
Language : French
Default : No
Forced : No

Text #7
ID : 9
Format : UTF-8
Codec ID : S_TEXT/UTF8
Codec ID/Info : UTF-8 Plain Text
Duration : 1 h 48 min
Bit rate : 59 b/s
Count of elements : 1549
Stream size : 47.1 KiB (0%)
Title : Italiano
Language : Italian
Default : No
Forced : No

Text #8
ID : 10
Format : UTF-8
Codec ID : S_TEXT/UTF8
Codec ID/Info : UTF-8 Plain Text
Duration : 1 h 48 min
Bit rate : 61 b/s
Count of elements : 1264
Stream size : 49.2 KiB (0%)
Title : Nederlands
Language : Dutch
Default : No
Forced : No

Text #9
ID : 11
Format : UTF-8
Codec ID : S_TEXT/UTF8
Codec ID/Info : UTF-8 Plain Text
Duration : 1 h 48 min
Bit rate : 59 b/s
Count of elements : 1568
Stream size : 47.5 KiB (0%)
Title : Norsk
Language : Norwegian
Default : No
Forced : No

Text #10
ID : 12
Format : UTF-8
Codec ID : S_TEXT/UTF8
Codec ID/Info : UTF-8 Plain Text
Duration : 1 h 48 min
Bit rate : 63 b/s
Count of elements : 1560
Stream size : 50.9 KiB (0%)
Title : Polski
Language : Polish
Default : No
Forced : No

Text #11
ID : 13
Format : UTF-8
Codec ID : S_TEXT/UTF8
Codec ID/Info : UTF-8 Plain Text
Duration : 1 h 48 min
Bit rate : 62 b/s
Count of elements : 1569
Stream size : 49.5 KiB (0%)
Title : Português
Language : Portuguese
Default : No
Forced : No

Text #12
ID : 14
Format : UTF-8
Codec ID : S_TEXT/UTF8
Codec ID/Info : UTF-8 Plain Text
Duration : 1 h 48 min
Bit rate : 62 b/s
Count of elements : 1568
Stream size : 50.1 KiB (0%)
Title : Português (Brasil)
Language : Portuguese
Default : No
Forced : No

Text #13
ID : 15
Format : UTF-8
Codec ID : S_TEXT/UTF8
Codec ID/Info : UTF-8 Plain Text
Duration : 1 h 48 min
Bit rate : 58 b/s
Count of elements : 1565
Stream size : 46.7 KiB (0%)
Title : Suomi
Language : Finnish
Default : No
Forced : No

Text #14
ID : 16
Format : UTF-8
Codec ID : S_TEXT/UTF8
Codec ID/Info : UTF-8 Plain Text
Duration : 1 h 48 min
Bit rate : 63 b/s
Count of elements : 1563
Stream size : 51.0 KiB (0%)
Title : Svenska
Language : Swedish
Default : No
Forced : No

Trailer
Lista plików Show/Hide [Pokaż/Ukryj]
Trackery
Tracker URLSeedówPeerówPobrań
http://tracker.trackerfix.com:80/announce000
udp://9.rarbg.me:2730/announce000
udp://9.rarbg.to:2980/announce000

Komentarze

Brak komentarzy!

Dodawanie komentarza
Komentujesz torrenta:
Chrzestna - Godmothered *2020* [MULTi.SUB.] [1080p] [DSNP] [WEBRip] [DDP5.1.Atmos] [x264-NOGRP] [Napisy PL] [zibi6248]

NAJCZĘŚCIEJ POBIERANE