Życie Carlita - Początek - Carlito's Way: Rise to Power (2005) [HDRip.1080p.x265-HEVC.AC3/DTS][Lektor i Napisy PL/Multi][Eng]
Kategorie
Ranking
RSS
Programy

Statystyki
Użytkowników:
Zarejestrowanych wczoraj:
Zarejestrowanych dzisiaj:
Torrentów:
Dodanych wczoraj:
Dodanych dzisiaj:
Warezów:
Dodanych wczoraj:
Dodanych dzisiaj:
111,279
66
1
217,493
100
1
14,166
13
0
Ostatnie 30
Popularne
w Sierpniu
==Torrent==
Kategoria: Filmy x265/h265 » Kryminalny


Dodał: electroloader
Data dodania:
2015-06-17 17:47:39
Rozmiar: 3.47 GB
Seedów: 11
Peerów: 3
Pobrano: 20 razy
Kondycja:









Życie Carlita - Początek - Carlito's Way: Rise to Power (2005) [HDRip.1080p.x265-HEVC.AC3/DTS][Lektor i Napisy PL/Multi][Eng]

http://iv.pl/images/18939675658414310881.jpg

http://www.filmweb.pl/film/%C5%BBycie+Carlita+-+Pocz%C4%85tek-2005-179988
http://www.imdb.com/title/tt0427038/

reżyseria: Michael Bregman
scenariusz: Michael Bregman
gatunek: Dramat,Gangsterski
produkcja: USA
premiera: 27-09-2005
muzyka:     Joe Delia
zdjęcia:    Adam Holender
czas:      01:27:21

opis:

In the late 1960s, Carlito Brigante (Hernandez) emerges as the heroin czar of Harlem.

Film opowiada o fascynującej „drodze na szczyt” jednej z legend przestępczego świata, Carlita Brigante. W postacie wcielili się: Jay Hernandez, Mario Van Peebles, Luis Guzman i Sean Combs. Carlito uwiedziony brutalną potęgą nowojorskich gangów, postanawia wejść do królestwa chciwości i zemsty. Wraz ze swoimi kompanami Carlito szybko toruje sobie drogę na szczyt przestępczego świata hiszpańskiego Harlemu. Z czasem nauczy się jednak, że aby przeżyć trzeba zachować lojalność wobec przyjaciół i szacunek dla zasad rządzących ulicą.

http://iv.pl/images/44514210417562606010.jpg
http://iv.pl/images/54655728939062313995.jpg
http://iv.pl/images/95336125201539717161.jpg
http://iv.pl/images/80031695936617159259.jpg

obsada:

Jay Hernandez, Mario Van Peebles, Luis Guzmán

dane techniczne:

Carlito's Way-Rise to Power (2005)-alE13.mkv
Format           : Matroska
Format version       : Version 4 / Version 2
File size          : 3.46 GiB
Duration          : 1h 33mn
Overall bit rate      : 5 313 Kbps
Movie name         : Gattaca (1997)-alE13
Encoded date        : UTC 2015-06-13 08:59:48
Writing application     : mkvmerge v7.9.0 ('Birds') 64bit
Writing library       : libebml v1.3.1 + libmatroska v1.4.2
_STATISTICS_WRITING_APP   : mkvmerge v7.9.0 ('Birds') 64bit
_STATISTICS_WRITING_DATE_UT : 2015-06-13 08:59:48
_STATISTICS_TAGS      : BPS DURATION NUMBER_OF_FRAMES NUMBER_OF_BYTES
DURATION          : 01:27:21.408000000
NUMBER_OF_FRAMES      : 1207
NUMBER_OF_BYTES       : 51631

Video
ID             : 1
Format           : HEVC
Format/Info         : High Efficiency Video Coding
Format profile       : Main@L4.0
Codec ID          : V_MPEGH/ISO/HEVC
Duration          : 1h 33mn
Bit rate          : 3 442 Kbps
Width            : 1 920 pixels
Height           : 1 040 pixels
Display aspect ratio    : 1.85:1
Frame rate mode       : Constant
Frame rate         : 23.976 fps
Color space         : YUV
Chroma subsampling     : 4:2:0
Bit depth          : 8 bits
Bits/(Pixel*Frame)     : 0.072
Stream size         : 2.24 GiB (65%)
Title            : Carlito's Way: Rise to Power (2005)-alE13
Default           : Yes
Forced           : No

Audio #1
ID             : 2
Format           : AC-3
Format/Info         : Audio Coding 3
Mode extension       : CM (complete main)
Format settings, Endianness : Big
Codec ID          : A_AC3
Duration          : 1h 33mn
Bit rate mode        : Constant
Bit rate          : 256 Kbps
Channel(s)         : 2 channels
Channel positions      : Front: L R
Sampling rate        : 48.0 KHz
Bit depth          : 16 bits
Compression mode      : Lossy
Delay relative to video   : 900ms
Stream size         : 171 MiB (5%)
Title            : Carlito's Way: Rise to Power (2005)-alE13
Language          : Polish
Default           : Yes
Forced           : No

Audio #2
ID             : 3
Format           : DTS
Format/Info         : Digital Theater Systems
Mode            : 16
Format settings, Endianness : Big
Codec ID          : A_DTS
Duration          : 1h 33mn
Bit rate mode        : Constant
Bit rate          : 1 510 Kbps
Channel(s)         : 6 channels
Channel positions      : Front: L C R, Side: L R, LFE
Sampling rate        : 48.0 KHz
Bit depth          : 24 bits
Compression mode      : Lossy
Stream size         : 1 008 MiB (28%)
Title            : Carlito's Way: Rise to Power (2005)-alE13_DTS, 6 ch, 1510 Kbps, Original
Language          : English
Default           : No
Forced           : No

Text #1
ID             : 4
Format           : UTF-8
Codec ID          : S_TEXT/UTF8
Codec ID/Info        : UTF-8 Plain Text
Title            : Carlito's Way: Rise to Power (2005)-alE13
Language          : English
Default           : No
Forced           : No

Text #2
ID             : 5
Format           : UTF-8
Codec ID          : S_TEXT/UTF8
Codec ID/Info        : UTF-8 Plain Text
Title            : Carlito's Way: Rise to Power (2005)-alE13
Language          : French
Default           : No
Forced           : No

Text #3
ID             : 6
Format           : UTF-8
Codec ID          : S_TEXT/UTF8
Codec ID/Info        : UTF-8 Plain Text
Title            : Carlito's Way: Rise to Power (2005)-alE13
Language          : Spanish
Default           : No
Forced           : No

Text #4
ID             : 7
Format           : UTF-8
Codec ID          : S_TEXT/UTF8
Codec ID/Info        : UTF-8 Plain Text
Title            : Carlito's Way: Rise to Power (2005)-alE13
Language          : Dutch
Default           : No
Forced           : No

Text #5
ID             : 8
Format           : UTF-8
Codec ID          : S_TEXT/UTF8
Codec ID/Info        : UTF-8 Plain Text
Title            : Carlito's Way: Rise to Power (2005)-alE13
Language          : Hebrew
Default           : No
Forced           : No

Text #6
ID             : 9
Format           : UTF-8
Codec ID          : S_TEXT/UTF8
Codec ID/Info        : UTF-8 Plain Text
Title            : Carlito's Way: Rise to Power (2005)-alE13
Language          : Polish
Default           : Yes
Forced           : No

Menu
00:00:00.000        : en:Chapter 01
00:08:36.015        : en:Chapter 02
00:15:21.879        : en:Chapter 03
00:23:40.252        : en:Chapter 04
00:32:08.551        : en:Chapter 05
00:41:42.374        : en:Chapter 06
00:49:57.828        : en:Chapter 07
00:56:00.221        : en:Chapter 08
01:06:51.048        : en:Chapter 09
01:16:31.795        : en:Chapter 10
01:29:13.001        : en:Chapter 11

Lista plików Show/Hide [Pokaż/Ukryj]
Trackery
Tracker URLSeedówPeerówPobrań
http://tracker.torrenty.org:6969/announce71284
udp://tracker.aletorrenty.pl:2710/announce20306
http://tracker.aletorrenty.pl:2710/announce12317
http://tracker.filetracker.pl:8089/announce10873
http://bigfoot1942.sektori.org:6969/announce007
udp://inferno.demonoid.ooo:3392/announce000
http://exodus.desync.com:6969/announce000

Komentarze

Brak komentarzy!

Dodawanie komentarza
Komentujesz torrenta:
Życie Carlita - Początek - Carlito's Way: Rise to Power (2005) [HDRip.1080p.x265-HEVC.AC3/DTS][Lektor i Napisy PL/Multi][Eng]

NAJCZĘŚCIEJ POBIERANE