Rękopis znaleziony w Sarragosie-The Saragossa Manuscript (1965)[BDRip.1080p.x265-HEVC-by alE13.AC3-DTS][Napisy Eng][PL]
Kategorie
Ranking
RSS
Programy

Statystyki
Użytkowników:
Zarejestrowanych wczoraj:
Zarejestrowanych dzisiaj:
Torrentów:
Dodanych wczoraj:
Dodanych dzisiaj:
Warezów:
Dodanych wczoraj:
Dodanych dzisiaj:
112,305
44
2
219,580
74
7
14,377
2
1
Ostatnie 30
Popularne
w Wrzesniu
==Torrent==
Kategoria: Filmy x265/h265 » Fantasy


Dodał: alE13
Data dodania:
2015-09-22 07:03:25
Rozmiar: 8.00 GB
Seedów: 10
Peerów: 9
Pobrano: 15 razy
Kondycja:









Rękopis znaleziony w Sarragosie-The Saragossa Manuscript (1965)[BDRip.1080p.x265-HEVC-by alE13.AC3-DTS][Napisy Eng][PL]



http://i.imgur.com/XFo9URt.jpg

http://www.imdb.com/title/tt0059643/
http://www.filmweb.pl/Rekopis.Znaleziony.W.Saragossie

reżyseria: Wojciech Has
scenariusz: Tadeusz Kwiatkowski
gatunek: Dramat,Fantasy,Kostiumowy,Poetycki
produkcja: Polska
premiera: 09-02-1965
muzyka: Krzysztof Penderecki
zdjęcia: Mieczysław Jahoda
czas: 03:03:27



Upon finding a book that relates his grandfather's story, an officer ventures through Spain meeting a wide array
of characters, most of whom have a story of their own to tell.

Stylowa komedia kostiumowa, awanturniczy film "płaszcza i szpady", fantastyczna baśń z duchami, wisielcami, opętanymi
księżniczkami. Scenarzysta Tadeusz Kwiatkowski i reżyser Wojciech Has starali się pozostać wierni powieści Jana Potockiego,
chociaż dla tego prawie trzygodzinnego widowiska i tak musieli dokonać skrótów. Realizatorzy zachowali szkatułkową
konstrukcję powieści, w której każda kolejna opowieść wywodzi się z poprzedniej. Spina je postać bohatera, kapitana
Alfonsa van Wordena (Zbigniew Cybulski) z gwardii króla Hiszpanii, podróżującego przez wzgórza Kastylii do Madrytu
i popadającego w najrozmaitsze tarapaty.



Zbigniew Cybulski, Iga Cembrzynska, Elzbieta Czyżewska



The Saragossa Manuscript (1965)-alE13.mkv
Format : Matroska
Format version : Version 4 / Version 2
File size : 8.00 GiB
Duration : 3h 3mn
Overall bit rate : 6 243 Kbps
Movie name : The Saragossa Manuscript (1965)-alE13
Encoded date : UTC 2015-09-21 13:50:37
Writing application : mkvmerge v8.3.0 ('Over the Horizon') 64bit
Writing library : libebml v1.3.1 + libmatroska v1.4.2
DURATION : 03:03:27.488000000
NUMBER_OF_FRAMES : 343984
NUMBER_OF_BYTES : 880599040
_STATISTICS_WRITING_APP : mkvmerge v8.3.0 ('Over the Horizon') 64bit
_STATISTICS_WRITING_DATE_UT : 2015-09-21 13:50:37
_STATISTICS_TAGS : BPS DURATION NUMBER_OF_FRAMES NUMBER_OF_BYTES

Video
ID : 1
Format : HEVC
Format/Info : High Efficiency Video Coding
Codec ID : V_MPEGH/ISO/HEVC
Duration : 3h 3mn
Bit rate : 3 970 Kbps
Width : 1 920 pixels
Height : 800 pixels
Display aspect ratio : 2.40:1
Frame rate mode : Constant
Frame rate : 24.000 fps
Bits/(Pixel*Frame) : 0.108
Stream size : 5.09 GiB (64%)
Title : The Saragossa Manuscript (1965)-alE13
Default : Yes
Forced : No

Audio #1
ID : 2
Format : DTS
Format/Info : Digital Theater Systems
Mode : 16
Format settings, Endianness : Big
Codec ID : A_DTS
Duration : 3h 3mn
Bit rate mode : Constant
Bit rate : 1 509 Kbps
Channel(s) : 6 channels
Channel positions : Front: L C R, Side: L R, LFE
Sampling rate : 48.0 KHz
Bit depth : 24 bits
Compression mode : Lossy
Stream size : 1.93 GiB (24%)
Title : The Saragossa Manuscript (1965)-alE13
Language : Polish
Default : Yes
Forced : No

Audio #2
ID : 4
Format : AC-3
Format/Info : Audio Coding 3
Mode extension : CM (complete main)
Format settings, Endianness : Big
Codec ID : A_AC3
Duration : 3h 3mn
Bit rate mode : Constant
Bit rate : 640 Kbps
Channel(s) : 6 channels
Channel positions : Front: L C R, Side: L R, LFE
Sampling rate : 48.0 KHz
Compression mode : Lossy
Stream size : 840 MiB (10%)
Title : The Saragossa Manuscript (1965)-alE13
Default : No
Forced : No

Text
ID : 3
Format : UTF-8
Codec ID : S_TEXT/UTF8
Codec ID/Info : UTF-8 Plain Text
Title : The Saragossa Manuscript (1965)-alE13
Language : English
Default : Yes
Forced : Yes

Menu
00:00:00.000 : en:00:00:00.000
00:10:11.500 : en:00:10:11.500
00:25:28.542 : en:00:25:28.542
00:44:02.292 : en:00:44:02.292
01:01:43.917 : en:01:01:43.917
01:20:45.875 : en:01:20:45.875
01:31:06.292 : en:01:31:06.292
01:48:55.417 : en:01:48:55.417
01:58:23.667 : en:01:58:23.667
02:17:27.417 : en:02:17:27.417
02:27:30.083 : en:02:27:30.083
02:37:53.958 : en:02:37:53.958
02:52:14.708 : en:02:52:14.708

Lista plików Show/Hide [Pokaż/Ukryj]
Trackery
Tracker URLSeedówPeerówPobrań
http://retracker.telecom.kz/announce33125
http://retracker.telecom.kz/announce.php33125
udp://open.demonii.com:1337/announce229
http://torrent.gresille.org/announce.php102
http://torrent.gresille.org/announce102
udp://glotorrents.pw:6969/announce010
http://tracker.filetracker.pl:8089/announce00283
http://tracker.torrenty.org:6969/announce00125
udp://tracker.aletorrenty.pl:2710/announce001
udp://exodus.desync.com:6969/announce000
udp://inferno.demonoid.ph:3389/announce000
http://announce.torrentsmd.com:8080/announce000
http://exodus.desync.com/announce000
udp://tracker.blackunicorn.xyz:6969/announce000
udp://tracker.ccc.de:80/announce000

Komentarze

Brak komentarzy!

Dodawanie komentarza
Komentujesz torrenta:
Rękopis znaleziony w Sarragosie-The Saragossa Manuscript (1965)[BDRip.1080p.x265-HEVC-by alE13.AC3-DTS][Napisy Eng][PL]

NAJCZĘŚCIEJ POBIERANE