Zootopia - Zwierzogród *2016* [HD-TC x264 AC3-TiTAN] [ENG]
Kategorie
Ranking
RSS
Programy

Statystyki
Użytkowników:
Zarejestrowanych wczoraj:
Zarejestrowanych dzisiaj:
Torrentów:
Dodanych wczoraj:
Dodanych dzisiaj:
Warezów:
Dodanych wczoraj:
Dodanych dzisiaj:
111,279
66
1
217,493
100
1
14,166
13
0
Ostatnie 30
Popularne
w Sierpniu
==Torrent==
Kategoria: Filmy TS/CAM » Animowany


Dodał: Truski
Data dodania:
2016-04-26 23:01:57
Rozmiar: 1.04 GB
Seedów: 998
Peerów: 74
Pobrano: 44 razy
Kondycja:









Zootopia - Zwierzogród *2016* [HD-TC x264 AC3-TiTAN] [ENG]



Produkcja: USA
Gatunek: Animacja, Komedia, Przygodowy
Premiera: 19 lutego 2016 (Polska), 10 lutego 2016 (świat)
Reżyseria: Rich Moore
Scenariusz: Jared Bush, Phil Johnston



Zwierzogrodu nie można pomylić z żadnym innym miastem. Jest to jedyna w swoim rodzaju współczesna metropolia zamieszkiwana wyłącznie przez zwierzęta. W Zwierzogrodzie nie jest ważne, jakim stworzeniem jesteś - czy to największym z lwów, czy może malutką ryjówką. Możesz tam zostać kimkolwiek chcesz. Ale nie wszystkie marzenia spełniają się od razu...Gdy do miasta przybywa ambitna policjantka Judy Hops, szybko przekonuje się, że jako pierwszy królik zatrudniony w miejscowej j policji, nie będzie wcale miała łatwego życia. Robi więc wszystko, by udowodnić swoją wartość (i zdobyć upragniony awans). Na jej drodze pojawia się jednak gadatliwy i chytry lis, Nick Bajer. Chcąc wykazać się za wszelką cenę, Judy przyjmuje sprawę, w której musi rozwiązać pewną kryminalną zagadkę. Jej partnerem w śledztwie zostaje nie kto inny jak wygadany i szczwany Nick…



★ Ginnifer Goodwin .... Judy Hopps (głos)
★ Jason Bateman .... Nick Wilde (głos)
★ Idris Elba .... Szef Bogo (głos)
★ Jenny Slate .... Bellwether (głos)
★ Nate Torrence .... Clawhauser (głos)
★ Bonnie Hunt .... Bonnie Hopps (głos)
★ Don Lake .... Stu Hopps (głos)
★ Tommy Chong .... Yax (głos)



Source: 720pTC MP-BA/Exclusive

General

Format : Matroska
Format version : Version 2
File size : 1.04 GiB
Duration : 1h 47mn
Overall bit rate mode : Variable
Overall bit rate : 1 385 Kbps

Video
ID : 1
Format : AVC
Format/Info : Advanced Video Codec
Format profile : High@L4.1
Format settings, CABAC : Yes
Format settings, ReFrames : 3 frames
Codec ID : V_MPEG4/ISO/AVC
Duration : 1h 47mn
Bit rate mode : Variable
Bit rate : 1 134 Kbps
Maximum bit rate : 40.0 Mbps
Width : 720 pixels
Height : 304 pixels
Display aspect ratio : 2.35:1
Frame rate mode : Constant
Frame rate : 23.976 fps
Color space : YUV
Chroma subsampling : 4:2:0
Bit depth : 8 bits
Scan type : Progressive
Bits/(Pixel*Frame) : 0.216
Stream size : 870 MiB (82%)
Default : Yes
Forced : No
Color primaries : BT.709
Transfer characteristics : BT.709
Matrix coefficients : BT.709

Audio
ID : 2
Format : AC-3
Format/Info : Audio Coding 3
Mode extension : CM (complete main)
Format settings, Endianness : Big
Codec ID : A_AC3
Duration : 1h 47mn
Bit rate mode : Constant
Bit rate : 224 Kbps
Channel(s) : 2 channels
Channel positions : Front: L R
Sampling rate : 44.1 KHz
Bit depth : 16 bits
Compression mode : Lossy
Stream size : 172 MiB (16%)
Language : English
Default : Yes
Forced : No

Lista plików Show/Hide [Pokaż/Ukryj]
Trackery
Tracker URLSeedówPeerówPobrań
udp://tracker.coppersurfer.tk:6969/announce123945705
udp://tracker.coppersurfer.tk:6969123945705
udp://tracker.opentrackr.org:1337/announce877526
udp://p4p.arenabg.ch:1337/announce7981101
udp://9.rarbg.me:2710/announce781405
udp://9.rarbg.to:2710/announce781405
udp://tracker.aletorrenty.pl:2710/announce7547
udp://tracker.leechers-paradise.org:6969/announce64671
udp://thetracker.org:80/announce6371267
udp://zer0day.ch:1337/announce627522
udp://tracker.piratepublic.com:1337/announce62389
udp://tracker.sktorrent.net:6969/announce55764
udp://eddie4.nl:6969/announce49537
udp://tracker.blackunicorn.xyz:6969/announce000
udp://glotorrents.pw:6969/announce000
Podobne Pliki

Komentarze

Brak komentarzy!

Dodawanie komentarza
Komentujesz torrenta:
Zootopia - Zwierzogród *2016* [HD-TC x264 AC3-TiTAN] [ENG]

NAJCZĘŚCIEJ POBIERANE