Kategorie
Ranking
RSS
Hosting zapewnia

Google+
Programy

Statystyki
Użytkowników:
Zarejestrowanych wczoraj:
Zarejestrowanych dzisiaj:
Torrentów:
Dodanych wczoraj:
Dodanych dzisiaj:
Warezów:
Dodanych wczoraj:
Dodanych dzisiaj:
69,584
70
8
151,927
103
25
4,921
7
5
Ostatnie 30
Popularne
w Sierpniu
Przeglądaj
<< Poprzednia      Następna >>
1 - 50 | 51 - 100 | 101 - 150 | 151 - 200 | 201 - 202
Gatunki
Show/Hide [Pokaż/Ukryj]
Po kliknięciu ”Pokaż/Ukryj” możesz wyszukać pozycję z wybranymi gatunkami
(Pamiętaj że np. filmy mogą mieć więcej niż jeden gatunek)

Wybrane gatunki z kategorii: Filmy x264/h264

Horror (205),
==Torrent==
Kategoria: Filmy x264/h264 » Akcja


Dodał: sonywwo
Data dodania:
2017-08-18 15:46:11
Rozmiar: 2.77 GB
Seedów: 7
Peerów: 98
Pobrano: 12 razy

Komentarze: 0


...( Info )...

Produkcja: USA
Gatunek: Horror, Akcja
Premiera: 2 grudnia 2016 (Polska), 24 listopada 2016 (świat)
Reżyseria: Anna Foerster
Scenariusz: Cory Goodman

...( Opis )...

Kolejna część przebojowej serii o rywalizujących na śmierć i życie wampirach i Lykanach. Dwa zwaśnione światy przenikają się w brutalnej walce o supremację i przeżycie. W postać pięknej i przebiegłej Selene ponownie wcieli się Kate Beckinsale.

...( Obsada )...

★ Kate Beckinsale .... Selene
★ Theo James .... David
★ Tobias Menzies .... Marius
★ Lara Pulver .... Semira
★ Charles Dance .... Thomas
★ James Faulkner .... Cassius
★ Peter Andersson .... Vidar
★ Clementine Nicholson .... Lena

...( Dane Techniczne )...

Kopia miniHD 1080p

Wersja językowa: polski lektor i angielska
standard dźwięku: Dolby Digital 5.1
napisy: polskie i angielskie
plik: mkv

Underworld.Blood.Wars.2016.MULTi.m1080p.BDRip.H264.DD5.1-KSQ

Format : Matroska at 4.334 Kb/s
Length : 2,77 GB for 1h 31 mi
[...]

»[Zobacz cały opis

==Torrent==
Kategoria: Filmy x264/h264 » Horror


Dodał: zibi6248
Data dodania:
2017-08-18 08:01:39
Rozmiar: 463.24 MB
Seedów: 23
Peerów: 42
Pobrano: 12 razy

Komentarze: 0


...( Info )...

Produkcja: Szwecja
Gatunek: Horror
Premiera: 9 października 2015 (świat)
Reżyseria: Daniel di Grado
Scenariusz: Kerstin Gezelius, Alexander Onofri, Daniel di Grado
https://www.youtube.com/watch?v=uDn9eo39Nzs

...( Opis )...

Introwertyczna nastoletnia Alena (Amalia Holm) trafia do elitarnej szkoły z internatem. Spotyka się tam z chłodnym przyjęciem. Wyniosła Filippa (Molly Nutley) gardzi nową koleżanką z klasy i nastawia pozostałe dziewczyny przeciwko niej. Niewinne szykany szybko przeradzają się w prawdziwą emocjonalną przemoc. Nieoczekiwanie pod swoje skrzydła bierze Alenę bogata i popularna Fabienne (Felice Jankell). Ta znajomość jest nie na rękę nie tylko Filippie, ale również starej znajomej Aleny, Josefin (Rebecka Nyman). Atmosfera w szkole staje się coraz bardziej napięta.

...( Obsada )...

★ Amalia Holm Bjelke .... Alena
★ Felice Jankell .... Fabienne
★ Molly Nutley .... Filippa
★ Helena af Sandeberg .... Dyrektorka szkoły
★ Fanny Klefelt ..
[...]

»[Zobacz cały opis

==Torrent==
Kategoria: Filmy x264/h264 » Horror


Dodał: Hytry1
Data dodania:
2017-08-17 12:22:11
Rozmiar: 730.40 MB
Seedów: 10
Peerów: 0
Pobrano: 8 razy

Komentarze: 0


..::(Info)::..

*Gatunek filmu: Horror, Czarna komedia
*Kraj produkcji:Francja, USA
*Data premiery: 2003
*Czas trwania filmu: 1 h 19 min
*Reżyseria: Jean-Baptiste Andrea, Fabrice Canepa

..::(Opis)::..

Pewna rodzinka była w drodze do teściów na wigilię. Ojciec zdecydował że lepiej jechać skrótem niż autostradą - ponieważ bedzie szybciej... z czasem robilo się coraz dziwniej, zegarki stają na jednej godzinie, w radiu słychać płacz dziecka, skrót w ogóle nie jest zaznaczony na mapie... a na domiar wszystkiego w lesie co jakiś czas się pojawia młoda kobieta, ubrana na biało...

..::(Obsada)::..

*Ray Wise jako
*Alexandra Holden jako
*Lin Shaye jako
*Mick Cain jako

..::(Dane Techniczne)::..

Format : AVI at 684 kb/s
Length : 391 MiB for 1 h 19 min 51s 776 ms

Video #0 : MPEG-4 Visual at 546 kb/s
Aspect : 640 x 360 (1.850) at 25.000 fps

Audio #0 : AC-3 at 128 kb/s
Infos : 2 kanały, 48,0 kHz

==Torrent==
Kategoria: Filmy x264/h264 » Horror


Dodał: Hytry1
Data dodania:
2017-08-17 11:43:33
Rozmiar: 774.98 MB
Seedów: 12
Peerów: 36
Pobrano: 12 razy

Komentarze: 0


..::(Info)::..

*Gatunek filmu: Horror
*Kraj produkcji: USA
*Data premiery: 2012
*Czas trwania filmu: 101 min.
*Reżyseria: Jeremy Gardner

..::(Opis)::..

Dwóch byłych graczy baseballu, Mickey (Adam Cronheim) i Ben (Jeremy Gardner), przemierza bez celu drogi Nowej Anglii. Trzymając się bocznych ścieżek i lasów, unikają miast opanowanych przez zombie. Aby przetrwać, muszą pokonać różnice, jakie ich dzielą. Ben preferuje dziki, koczowniczy tryb życia, podczas gdy Mikey'owi ciężko jest zaakceptować trudną rzeczywistość. Marzy o łóżku, dziewczynie i bezpiecznym miejscu. Kiedy odbiera transmisję radiową, postanawia za wszelką cenę dostać się do miejsca przekazu, nawet jeśli nie jest tam mile widziany.

..::(Obsada)::..

*Jeremy Gardner jako Ben
*Adam Cronheim jako Mickey
*Niels Bolle jako Jerry
*Alana O'Brien jako Annie

..::(Dane Techniczne)::..

Format : MPEG-4 at 1.078 kb/s
Length : 775 MiB for 1 h 40 min 27s 222 ms

Video #0 : AVC at 970 kb/s
Aspect : 854 x 364
[...]

»[Zobacz cały opis

==Torrent==
Kategoria: Filmy x264/h264 » Horror


Dodał: myca1125
Data dodania:
2017-08-16 21:03:47
Rozmiar: 541.37 MB
Seedów: 10
Peerów: 3
Pobrano: 12 razy

Komentarze: 0


...( Info )...

reżyseria: Andrew Douglas
scenariusz: Scott Kosar
gatunek: Horror
produkcja: USA
premiera: 22 lipca 2005 (Polska) 7 kwietnia 2005 (świat)

...( Opis )...

13 listopada 1974 roku policja w hrabstwie Suffolk otrzymuje zawiadomienie o popełnieniu zbrodni. Policjanci natychmiast udają się pod wskazany adres: 112 Ocean Avenue
na Long Island. Tam odkrywają przerażającą zbrodnię. Zbrodnię, która wstrząsnęła Ameryką. Sześciu członków rodziny zostało zastrzelonych w ich własnym domu.
Kilka dni po tym wydarzeniu, do zbrodni przyznaje się Ronald De Feo Jr. Zeznaje, że zamordował swoich rodziców i czwórkę rodzeństwa. Jako motyw tej przerażającej zbrodni
podaje "głosy", które słyszał w domu. Rok później George (Ryan Reynolds) i Kathy (Melissa George) Lutzowie, wraz z dziećmi wprowadzają się do domu w Amityville.
Myślą, że wreszcie znaleźli wymarzone miejsce do życia. Jednak już wkrótce w domu ich marzeń zaczynają dziać się niewytłumaczalne i przerażające zdarzenia.
[...]

»[Zobacz cały opis

==Torrent==
Kategoria: Filmy x264/h264 » Horror


Dodał: myca1125
Data dodania:
2017-08-16 20:56:41
Rozmiar: 869.91 MB
Seedów: 10
Peerów: 3
Pobrano: 10 razy

Komentarze: 0


...( Info )...

Amityville: Drzwi do piekła 8
reżyseria: Steve White
scenariusz: Joshua Michael Stern
gatunek: Horror
produkcja: USA
premiera: 2 października 1996 (świat)

...( Opis )...

Bill Martin (Robin Thomas) był już raz żonaty, ale to małżeństwo nie należało do udanych. Jedyna pociechą jest jego córka z tego związku - Jessica.
Kiedy poślubia Clarą (Starr Andreff) pragnie zmienić swoje życie na lepsze. Chcąc zacząć wszystko od nowa, wraz z drugą żoną, jej dzieckiem z poprzedniego małżeństwa
i Jessicą przeprowadza się do domu wybudowanego w stylu wiktoriańskim. Pewnego dnia Bill znajduje tam domek dla lalek, który postanawia podarować córce na zbliżające
się urodziny. Nie wie jednak, że zabawka jest wierną kopią domu w Amityville i tak jak on, jest nawiedzona przez duchy. Wkrótce rozpoczynają one swe harce,
burząc tak upragniony spokój. Bohater zostaje opętany przez siły nieczyste, które usiłują go skłonić do wymordowania reszty domowników.

...( Obsada )...
[...]

»[Zobacz cały opis

==Torrent==
Kategoria: Filmy x264/h264 » Horror


Dodał: myca1125
Data dodania:
2017-08-16 15:41:12
Rozmiar: 1.05 GB
Seedów: 11
Peerów: 11
Pobrano: 12 razy

Komentarze: 0


...( Info )...

Amityville 1992: Najwyższy czas 6
reżyseria: Tony Randel
scenariusz: Christopher DeFaria, Antonio Toro
gatunek: Horror
produkcja: USA
premiera: 16 lipca 1992 (świat)

Amityville Horror - Następne pokolenie 7
reżyseria: John Murlowski
scenariusz: Christopher DeFaria, Antonio Toro
gatunek: Horror
produkcja: USA
premiera: sierpień 1993 (świat)

ZWIASTUNY
https://www.youtube.com/watch?v=3OPpFp4ZtGo
https://www.youtube.com/watch?v=5UMfNkDvKq8

...( Opis )...

6
Inwestor budowlany, Jacob Sterling wraca do rodzinnego domu w Nowym Jorku. Przywozi ze sobą drobny prezent dla żony, jest nim stary zegar, pochodzący z nawiedzonego domu
w Amityville. Zegar, który został powieszony w kuchni, posiada tajemniczą moc, która sprowadzi nieszczęście na rodzinę Sterlingów. Niebawem zaczynają ginąć jej członkowie.

7
Głownym bohaterem tej części "Amityville" jest młody fotograf Keyes. Od bezdomnego, któremu zrobił kilka zdjęć, otrzymuje stare lustro. Fotograf wraca
[...]

»[Zobacz cały opis

==Torrent==
Kategoria: Filmy x264/h264 » Horror


Dodał: myca1125
Data dodania:
2017-08-16 15:33:54
Rozmiar: 1.03 GB
Seedów: 11
Peerów: 0
Pobrano: 11 razy

Komentarze: 0


...( Info )...

Amityville 4 - Ucieczka Diabła
reżyseria: Sandor Stern
scenariusz: Sandor Stern
gatunek: Horror
produkcja: USA
premiera: styczeń 1989 (świat)

Klątwa Amityville 5
reżyseria: Tom Berry
scenariusz: Michael Krueger, Norvell Rose
gatunek: Horror
produkcja: Kanada, USA
premiera: 7 maja 1990 (świat)

ZWIASTUNY
https://www.youtube.com/watch?v=zLFq4ccDnKk
https://www.youtube.com/watch?v=Feq3v0xQHM4

...( Opis )...

4
Nancy Evans, wdowa z trójką dzieci, po powrocie do domu zastaje prezent urodzinowy od ciotki z Amityville - dużą, brzydką, złowieszczo wyglądającą lampę.
Nagle w domu pani Evans zaczynają dziać się dziwne rzeczy: dozorca zostaje znaleziony martwy, pojawiają się dziwne istoty, a najmłodsza córka,
Jessica, uważa że może przez lampę rozmawiać ze swoim zmarłym tatą.

5
W piątej części akcja powraca do nawiedzonego domu w Amityville, w którym noc spędza piątka przyjaciół. Przed laty w domu tym został zamordowany ksiądz.
Bohaterowie zaczyn
[...]

»[Zobacz cały opis

==Torrent==
Kategoria: Filmy x264/h264 » Horror


Dodał: myca1125
Data dodania:
2017-08-16 15:25:42
Rozmiar: 1.44 GB
Seedów: 11
Peerów: 0
Pobrano: 12 razy

Komentarze: 0


...( Info )...

Horror Amityville
Produkcja: USA
Gatunek: Horror
Data premiery: 1979-07-27 (Świat)
Reżyseria: Stuart Rosenberg
Scenariusz: Sandor Stern

Amityville II: Opętanie
reżyseria: Damiano Damiani
scenariusz: Tommy Lee Wallace, Dardano Sacchetti
gatunek: Horror
produkcja: Meksyk, USA, Włochy
premiera: 24 września 1982 (świat)

Amityville III: Demon
reżyseria: Richard Fleischer
scenariusz: David Ambrose, William Wales
gatunek: Horror
produkcja: USA
premiera: 18 listopada 1983 (świat)

ZWIASTUNY
https://www.youtube.com/watch?v=AvYX6KlIm1k
https://www.youtube.com/watch?v=lwIgPbOXKI0
https://www.youtube.com/watch?v=Gvh8En7ISsY

...( Opis )...

1
Nowożeńcy, George oraz Kathy Lutz, wraz z trójką jej dzieci z pierwszego małżeństwa wprowadza się do swojego "wymarzonego" domu na przedmieściach Long Island.
Nie zdają sobie sprawy, że w jego cieniu kryje się okrutna historia z przeszłości... Film, który doczekał się wielu remake'ów i kontynuacji, opart
[...]

»[Zobacz cały opis

==Torrent==
Kategoria: Filmy x264/h264 » Horror


Dodał: Hytry1
Data dodania:
2017-08-10 16:43:28
Rozmiar: 409.86 MB
Seedów: 23
Peerów: 9
Pobrano: 26 razy

Komentarze: 0


..::(Info)::..

*Gatunek filmu: Horror
*Kraj produkcji: Brazylia
*Data premiery: 2017
*Czas trwania filmu: 1 h 38 min
*Reżyseria: Renato Siqueira

..::(Opis)::..

Rodzinę Lucasa Vidala dotknęła tragedia, po której został on księdzem, by walczyć ze złem. Nie spodziewał się jednak, że stanie oko w oko z samym diabłem.

..::(Obsada)::..

*Renato Siqueira
*Fabio Tomasini
*Luiz Marigo
*Cibelle Martin

..::(Dane Techniczne)::..

Format : MPEG-4 at 580 kb/s
Length : 410 MiB for 1 h 38 min 45s 42 ms

Video #0 : AVC at 512 kb/s
Aspect : 640 x 352 (1.818) at 24.000 fps

Audio #0 : AAC at 64,6 kb/s
Infos : 2 kanały, 48,0 kHz

==Torrent==
Kategoria: Filmy x264/h264 » Horror


Dodał: Hytry1
Data dodania:
2017-08-10 10:34:03
Rozmiar: 645.81 MB
Seedów: 11
Peerów: 0
Pobrano: 9 razy

Komentarze: 0


..::(Info)::..

*Gatunek filmu: Horror
*Kraj produkcji: USA
*Data premiery: 2000
*Czas trwania filmu:
*Reżyseria: Joe Berlinger

..::(Opis)::..

Zafascynowany kontrowersyjnie realistycznym filmem Blair Witch Project Jeffrey – były pacjent kliniki psychiatrycznej – organizuje wyprawę do Burkittsville, by odnaleźć miejsce powstania obrazu. Towarzyszą mu czterej fani filmu: podająca się za realną czarownicę Erica, ekscentryczna gotka Kim oraz Stephen, autor książki poświęconej wiedźmie z Blair, wraz ze swoją ciężarną narzeczoną Tristen. Śmiałkowie spędzają noc przy ruinach domu Rustina Parra. Nazajutrz okazuje się, że ich rzeczy są zniszczone, a oni sami nie pamiętają wydarzeń z ubiegłego wieczoru.
Z dnia na dzień sytuacja staje się coraz bardziej obłędna – bohaterowie zaczynają się zachowywać coraz bardziej niepokojąco, czym interesuje się miejscowy szeryf, sprowokowany skargami mieszkańców okolicznych osad na fanów wiedźmy z Blair. Niebawem dochodzi również do zaginięcia je
[...]

»[Zobacz cały opis

==Torrent==
Kategoria: Filmy x264/h264 » Horror


Dodał: Truski
Data dodania:
2017-08-07 23:15:54
Rozmiar: 2.53 GB
Seedów: 4828
Peerów: 3621
Pobrano: 13 razy

Komentarze: 0


...( Info )...

Tytuł............................................: Sharknado 5: Global Swarming / Rekinado 5: Efekt płetwiarniany
Ocena.............................................: IMDB - 6.8/10 (8)
Produkcja.........................................: USA
Gatunek...........................................: Horror, Komedia
Czas trwania......................................: 85 min.
Premiera..........................................: 06.08.2017
Reżyseria........................................: Anthony C. Ferrante
Scenariusz........................................: Scotty Mullen

...( Opis )...

W Sharknado 5 bohaterowie muszą odnaleźć swojego syna uwięzionego w przemieszczającym się rekinado, które podróżuje przez cały świat - od Londynu, przez Rio, Tokio, Rzym, Amsterdam i inne rejony globu. Fin i April będą szukać pomocy u celebrytów, stając do najbardziej epickiej walki w swoim życiu.

...( Obsada )...

★ Tara Reid .... April Wexler
★ Ian Ziering .... Fin Shepard
[...]

»[Zobacz cały opis

==Torrent==
Kategoria: Filmy x264/h264 » Akcja


Dodał: Hytry1
Data dodania:
2017-08-07 10:38:53
Rozmiar: 478.44 MB
Seedów: 12
Peerów: 0
Pobrano: 20 razy

Komentarze: 0


..::(Info)::..

*Gatunek filmu: Akcja, Horror
*Kraj produkcji: Japonia
*Data premiery: 2010
*Czas trwania filmu: 2 h 9 min
*Reżyseria: Shinsuke Sato

..::(Opis)::..

Student Kei Kurono zauważa byłego przyjaciela z dzieciństwa Masaru Kato pomagającego pijanemu mężczyźnie, który spadł z peronu w metrze. Kei skacze za nim na tory, aby mu pomóc. Kilka chwil później, zbliża się ku nim szybko pędzący pociąg metra, a obaj mężczyźni przyglądają się bezradnie temu, jak ich życie zbliża się ku końcowi. W następnej chwili Kei i Masaru znajdują się w dziwnym mieszkaniu z ogromną, tajemniczą, czarną kulą i innymi ludźmi, którzy niedawno zmarli. Wielka czarna kula w środku salonu to "Gantz". Gantz zleca zebranym osobom w pomieszczeniu misje eksterminacji obcych. Zostaje im wyznaczony określony czas i jeśli się im powiedzie otrzymają punkty. Suma 100 punktów pozwoli im opuścić to miejsce, przypominające czyściec lub zwrócić komuś życie. Jeśli zawiodą, mogą zniknąć na zawsze...

..::(Obsa
[...]

»[Zobacz cały opis

==Torrent==
Kategoria: Filmy x264/h264 » Horror


Dodał: Karibu
Data dodania:
2017-08-02 08:51:04
Rozmiar: 1.70 GB
Seedów: 5
Peerów: 10
Pobrano: 29 razy

Komentarze: 0


...( Info )...

Produkcja: USA
Gatunek: Horror
Premiera: 23 października 2015 (Polska), 25 września 2015 (świat)
Reżyseria: Guillermo del Toro
Scenariusz: Guillermo del Toro, Matthew Robbins

...( O filmie )...

http://www.filmweb.pl/film/Crimson+Peak.+Wzg%C3%B3rze+krwi-2015-678523
https://www.youtube.com/watch?v=6yAbFYbi8XU

...( Opis )...

Po rodzinnej tragedii młoda pisarka (Mia Wasikowska) trafia do mrocznego domu, którego ściany pamiętają duchy przeszłości, a jej nowy mąż - sir Thomas Sharpe (Tom Hiddleston) nie jest tym, za kogo się podawał. Rzecz dzieje się w mrokach XIX wieku, w zimnym, górzystym hrabstwie Kumbria.

...( Obsada )...

★ Mia Wasikowska ........ Edith Cushing
★ Jessica Chastain ........ Lucille Sharpe
★ Tom Hiddleston ........ Thomas Sharpe
★ Charlie Hunnam ........ Dr Alan McMichael
★ Jim Beaver ........ Carter Cushing
★ Burn Gorman ........ Holly
★ Leslie Hope ........ Pani McMichael
★ Doug Jones ........ Matka Edith, Lady Sharpe

.
[...]

»[Zobacz cały opis

==Torrent==
Kategoria: Filmy x264/h264 » Horror


Dodał: Karibu
Data dodania:
2017-07-18 12:13:05
Rozmiar: 965.93 MB
Seedów: 26
Peerów: 0
Pobrano: 8 razy

Komentarze: 0


...( Info )...

Data premiery: 5 grudnia 2008 (Polska)
Reżyseria: Catherine Hardwicke
Autor muzyki: Carter Burwell
Utwór przewodni: Decode
Operator: Elliot Davis

...( Opis )...

Isabella Swan to szukająca swego miejsca w świecie, zagubiona nastolatka, cicha marzycielka. Kiedy poznaje przystojnego, błyskotliwego i intrygującego Edwarda Cullena nie zdaje sobie sprawy, że znajomość ta wstrząśnie jej życiem i zmieni je na zawsze. Zrealizowana z rozmachem historia o zakazanym, burzliwym i niebezpiecznym romansie młodego wampira i śmiertelniczki. W obsadzie wschodzące gwiazdy Hollywood: Kristen Stewart ("Azyl":wink: i Robert Pattinson ("Harry Potter i Czara Ognia!":wink:!

...( Obsada )...

Kristen Stewart - Bella Swan
Taylor Lautner - Jacob Black
Robert Pattinson - Edward Cullen
Peter Facinelli - dr Carlisle Cullen

...( Dane Techniczne )...

Format : MPEG-4
ID kodeka : isom (isom/iso2/avc1/mp41)
Rozmiar pliku : 950 MiB
Czas trwania : 2 h 1 min
Rodzaj całkowitej przepływnoś
[...]

»[Zobacz cały opis

==Torrent==
Kategoria: Filmy x264/h264 » Horror


Dodał: Karibu
Data dodania:
2017-07-18 07:38:24
Rozmiar: 195.51 MB
Seedów: 32
Peerów: 22
Pobrano: 9 razy

Komentarze: 0


...( Info )...

czas trwania: 1 godz. 27 min.
gatunek: Horror
premiera: 1 czerwca 2006 (świat)
produkcja: Niemcy, RPA, USA
reżyseria: Nicholas Mastandrea
scenariusz: Robert Conte, Peter Martin Wortmann

...( Opis )...

Pięcioro przyjaciół postanawia spędzić upojne wakacje na małej opuszczonej wysepce. Wkrótce jednak okaże się, że nie są tam sami. Wyspę zamieszkuje populacja zmutowanych genetycznie dzikich psów. Zwierzęta początkowo nie budzą lęku, ale wkrótce okaże się, że bardzo różnią się od normalnych psów. To prawdziwe bestie, których mordercze skłonności i inteligencja znacznie przekraczają normę. Piątka osaczonych przyjaciół musi podjąć walkę o przetrwanie.

...( Obsada )...

Michelle Rodriguez...............Nicki
Oliver Hudson....................John
Taryn Manning....................Sara
Eric Lively......................Matt
Hill Harper......................Noah
Nick Boraine.....................Luke
Lisa-Marie Schneider.............Jenny

...( Dane Techni
[...]

»[Zobacz cały opis

==Torrent==
Kategoria: Filmy x264/h264 » Horror


Dodał: Norman11
Data dodania:
2017-07-14 03:16:38
Rozmiar: 3.69 GB
Seedów: 148
Peerów: 211
Pobrano: 62 razy

Komentarze: 0


...( Info )...

.....Pobrałeś/aś podziękuj To nic nie kosztuje a Motywuje!!!.....

Film dostepny ONLINE na Forum!!! Dla użytkowników D-T

link do filmu https://vidoza.net/ucjuoxucjqpe.html



Produkcja: USA
Gatunek: Horror
Premiera: 28 kwietnia 2017 (Polska), 23 stycznia 2017 (świat)
Reżyseria: Jordan Peele
Scenariusz: Jordan Peele


...( Opis )...

Historia młodego czarnoskórego chłopaka, Chrisa Washingtona (Daniel Kaluuya), który wybiera się z zapoznawczą wizytą do posiadłości rodziców jego białej dziewczyny – Rose Armitage (znana z serialu "Dziewczyny" Allison Williams). Szybko orientuje się, że atmosfera domu jest, mówiąc delikatnie, dziwna. Nie spodziewa się jednak, że powodem zaproszenia nie jest wyłącznie chęć poznania go przez rodziców Rose. Chris wierzy, że nerwowa atmosfera panująca w domu Armitage’ów wynika z przyczyn rasowych. Niedługo jednak odkryje zadziwiającą prawdę. Prawdę, jakiej nie mógł się spodziewać...

...( Obsada )...

★ Daniel Kaluuya .
[...]

»[Zobacz cały opis

==Torrent==
Kategoria: Filmy x264/h264 » Horror


Dodał: Truski
Data dodania:
2017-07-02 22:59:11
Rozmiar: 7.81 GB
Seedów: 158
Peerów: 315
Pobrano: 28 razy

Komentarze: 1


...( Info )...

Tytuł............................................: The Evil Within
Ocena.............................................: IMDB - 6/10 (254)
Produkcja.........................................: USA
Gatunek...........................................: Horror
Czas trwania......................................: 98 min.
Premiera..........................................: 26.02.2017 - Świat
Reżyseria........................................: Andrew Getty
Scenariusz........................................: Andrew Getty

...( Opis )...

Upośledzony umysłowo Dennis, reagując na związek ignorującego go coraz bardziej brata i jego dziewczyny, odnajduje swego powiernika w swoim żądnym zemsty lustrzanym odbiciu.

...( Obsada )...

Frederick Koehler,
Sean Patrick Flanery,
Brianna Brown,
Dina Meyer

...( Dane Techniczne )...

Video
ID : 1
Format : AVC
Format/Info : Advanced Video Codec
Format profile : High@L4
Format settings, CABAC : Yes
Format settings, Re
[...]

»[Zobacz cały opis

==Torrent==
Kategoria: Filmy x264/h264 » Dokumentalny


Dodał: DarkAngel25
Data dodania:
2017-07-02 02:26:52
Rozmiar: 694.26 MB
Seedów: 11
Peerów: 0
Pobrano: 52 razy

Komentarze: 0


...( Info )...

1945 - okrutny pokój
(1945: The Savage Peace)
FILM DOKUMENTALNY Wielka Brytania 2015 od 16 lat

Gdy dla jednych zakończenie II wojny światowej oznaczało wolność, dla milionów Niemców było początkiem nowego, krwawego rozdziału. W odwecie za krzywdy wyrządzone na zlecenie Adolfa Hitlera musieli zapłacić bardzo wysoką cenę. Dokument przedstawia wstrząsającą historię zemsty, jaka została dokonana na niemieckiej ludności cywilnej. Oprawcy w odwecie używali często metod odzwierciedlających najgorsze działania nazistów. Film zawiera unikalne zeznania naocznych świadków i samych poszkodowanych - po 70. latach wciąż pamiętają horror, jaki przeżyli. Widzowie zobaczą wzruszający i żywy obraz Europy odradzającej się z gruzów.

...( Dane Techniczne )...

Format : Matroska at 1.681 Kb/s
Length : 692 MB for 57 min. 37s 576ms

Video #0 : AVC at 1.392 Kb/s
Aspect : 720 x 576 (1.818) at 25.000 fps

Audio #0 : MPEG Audio at 256 Kb/s
Infos : 2 kanały, 48,0 KHz
Language : pl

==Torrent==
Kategoria: Filmy x264/h264 » Horror


Dodał: daroj6
Data dodania:
2017-06-25 15:37:23
Rozmiar: 754.42 MB
Seedów: 29
Peerów: 21
Pobrano: 46 razy

Komentarze: 0


...( Info )...

Produkcja: Wielka Brytania
Gatunek: Horror, Komedia
Reżyseria: Gary Meyer
Scenariusz: Gary Meyer

...( O filmie )...

http://www.imdb.com/title/tt3167458/

http://www.filmweb.pl/film/Bachanalia-2014-698147

...( Opis )...

Grupa znajomych wyrusza za miasto na weekend, aby przy winie i wykwintnym jedzeniu odpocząć od codziennego zgiełku. Niespodziewanie sielanka zamienia się w bluźnierczą i rozpustną satanistyczną orgię.

...( Obsada )...

★ Edmund Digby-Jones .... Dave
★ Kyle Calderwood .... Kevin
★ Mariana Peñalva .... Randy
★ J.C. Montes-Roldan .... Pepe
★ Lucinda Rhodes Thakrar .... Sam

...( Dane Techniczne )...

Format: Matroska at 1 086 Kbp/s
Length: 754 MiB for 1 h 37 min

Video: AVC Visual at 900 Kbp/s
Aspect: 854x400 at 25.00 fps

Audio: AC3 at 192 Kbp/s
Info: 2 channels stereo, 44,1 KHz

==Torrent==
Kategoria: Filmy x264/h264 » Animowany


Dodał: RIAS
Data dodania:
2017-06-25 14:46:26
Rozmiar: 2.45 GB
Seedów: 146
Peerów: 143
Pobrano: 24 razy

Komentarze: 1


...( Info )...

Produkcja: Japonia
Gatunek: Horror, Anime
Premiera: 27 maja 2017 (świat)
Reżyseria: Takanori Tsujimoto
Scenariusz: Makoto Fukami

...( Opis )...

Chris Redfield wspomaga pomoc Leona S. Kennedy'ego i Rebeccy Chambers, aby powstrzymać kupca śmierci, z zemsty, rozprzestrzeniać śmiertelny wirus w Nowym Jorku.

...( Obsada )...

★ Matthew Mercer .... Leon S. Kennedy
★ Erin Cahill .... Rebecca Chambers
★ John DeMita .... Glenn Arias
★ Kevin Dorman .... Chris Redfield

...( Dane Techniczne )...

RELEASE: Resident.Evil.Vendetta.2017.720p.WEB-DL.X264.AC3-EVO

SOURCE: iTunes :)

ViDEO: 3321 Kbps (L4.1@High)

RESOLUTiON: 1280x720

RUNTiME: 1h 37m 43s

SUBTiTLES: Bulgarian .srt.

AUDiO: 384 Kbps AC3 5.1

LANGUAGE: ENGLiSH

==Torrent==
Kategoria: Filmy x264/h264 » Horror


Dodał: wavin
Data dodania:
2017-06-21 09:16:52
Rozmiar: 3.80 GB
Seedów: 298
Peerów: 785
Pobrano: 245 razy

Komentarze: 0


...( Info )...

Rok: 2017
Czas: 1 godz. 37 min.
Ocena: 9,7
Głosów: 3
Reżyseria: Takanori Tsujimoto
Scenariusz: Makoto Fukami
Produkcja: Japonia
Gatunek: HorrorAnime

...( Opis )...
Chris Redfield enlists the help of Leon S. Kennedy and Rebecca Chambers to stop a death merchant, with a vengeance, from spreading a deadly virus in New York.

...( Dane Techniczne )...

Video
ID : 1
Format : AVC
Format/Info : Advanced Video Codec
Format profile : High@L4.0
Format settings, CABAC : Yes
Format settings, ReFrames : 4 frames
Codec ID : V_MPEG4/ISO/AVC
Duration : 1h 37mn
Bit rate : 5 093 Kbps
Width : 1 920 pixels
Height : 1 080 pixels
Display aspect ratio : 16:9
Frame rate mode : Constant
Frame rate : 23.976 fps
Color space : YUV
Chroma subsampling : 4:2:0
Bit depth : 8 bits
Scan type : Progressive
Bits/(Pixel*Frame) : 0.102
Stream size : 3.46 GiB (91%)
Language : English
Default : Yes
Forced : No

Audio
Format : AC-3
Format/Info : Audio Coding 3
Codec
[...]

»[Zobacz cały opis

==Torrent==
Kategoria: Filmy x264/h264 » Horror


Dodał: Truski
Data dodania:
2017-06-20 23:32:22
Rozmiar: 3.80 GB
Seedów: 16982
Peerów: 11081
Pobrano: 35 razy

Komentarze: 0


...( Info )...

Tytuł............................................: Resident Evil: Vendetta / Biohazard: Vendetta
Ocena.............................................: IMDB - 7.1/10 (467), Filmweb - 10.0/10 (1)
Produkcja.........................................: Japonia
Gatunek...........................................: Horror, Anime
Czas trwania......................................: 97 min.
Premiera..........................................: 27.05.2017 - Świat
Reżyseria........................................: Takanori Tsujimoto
Scenariusz........................................: Makoto Fukami

...( Opis )...

Grupa bohaterów próbuje za wszelką cenę powstrzymać szaleńca, który chce rozprzestrzenić śmiertelnie niebezpiecznego wirusa w Nowym Jorku.

...( Obsada )...

Matthew Mercer,
Erin Cahill,
Karen Strassman,
Kari Wahlgren

...( Dane Techniczne )...

Video
ID : 1
Format : AVC
Format/Info : Advanced Video Codec
Format profile : High@L4
Format settings,
[...]

»[Zobacz cały opis

==Torrent==
Kategoria: Filmy x264/h264 » Horror


Dodał: sonywwo
Data dodania:
2017-06-18 23:02:11
Rozmiar: 2.70 GB
Seedów: 25
Peerów: 34
Pobrano: 54 razy

Komentarze: 0


...( Info )...

Tytuł oryginalny: Lights Out
Tytuł polski: Kiedy gasną światła
Produkcja: USA
Gatunek: Horror
Premiera: 22 lipca 2016 (Polska), 8 czerwca 2016 (świat)
Reżyseria: David F. Sandberg
Scenariusz: Eric Heisserer

...( Opis )...

Kiedy Rebecca opuściła rodzinny dom, myślała, że wraz z nim pozostawiła za sobą lęki z dzieciństwa. Dorastając, nigdy nie miała całkowitej pewności, co było prawdziwe, a co nie, zwłaszcza kiedy gasły światła. Teraz jej młodszy brat, Martin, jest świadkiem tych samych niewyjaśnionych i przerażających sytuacji, które kiedyś wystawiały na próbę jej zdrowie psychiczne i zagrażały bezpieczeństwu. Przerażająca istota w tajemniczy sposób związana z matką rodzeństwa, Sophie, ponownie pojawiła się w ich życiu. Tym razem jednak, w miarę jak Rebecca zbliża się do odkrycia prawdy, nie ma wątpliwości, że ich życiu zagraża niebezpieczeństwo... zwłaszcza Kiedy gasną światła.

...( Obsada )...

★ Teresa Palmer .... Rebecca
★ Gabriel Bateman .... Mar
[...]

»[Zobacz cały opis

==Torrent==
Kategoria: Filmy x264/h264 » Horror


Dodał: DarkAngel25
Data dodania:
2017-06-17 12:12:14
Rozmiar: 930.73 MB
Seedów: 24
Peerów: 92
Pobrano: 30 razy

Komentarze: 0


...( Info )...

Reżyseria: Steven Kostanski, Jeremy Gillespie
Scenariusz: Jeremy Gillespie, Steven Kostanski
Gatunek: Horror
Produkcja: Kanada
Premiera: 31 marca 2017 (świat)

...( Opis )...

Film opowiada o policjancie, który wiezie pewnego człowieka do lokalnego szpitala. Wkrótce pracownicy i pacjenci zostają uwięzieni przez przerażające, nieziemskie zagrożenie i zmuszeni do zagłębienia się w głąb budynku, aby uciec z koszmaru.

...( Obsada )...

★ Aaron Poole ... Daniel Carter
★ Kenneth Welsh ... Dr. Richard Powell
★ Daniel Fathers ... The Father
★ Kathleen Munroe ... Allison Fraser
★ Ellen Wong ... Kim

...( Dane Techniczne )...

Format : Matroska at 1.434 kb/s
Length : 929 MiB for 1 h 30 min 36s 305 ms

Video #0 : MPEG-4 Visual at 830 kb/s
Aspect : 720 x 304 (2.349) at 23.976 fps

Audio #0 : AC-3 at 576 kb/s
Infos : 6 kanałów, 48,0 kHz
Language : en

Text #0 : Sub PL

NAPISY WKLEJONE W OBRAZ:)

==Torrent==
Kategoria: Filmy x264/h264 » Dokumentalny


Dodał: Uploader3
Data dodania:
2017-06-10 21:43:39
Rozmiar: 692.93 MB
Seedów: 93
Peerów: 38
Pobrano: 46 razy

Komentarze: 0


...( Info )...

1945 - okrutny pokój
(1945: The Savage Peace)
FILM DOKUMENTALNY Wielka Brytania 2015 od 16 lat
...( Opis )...


Gdy dla jednych zakończenie II wojny światowej oznaczało wolność, dla milionów Niemców było początkiem nowego, krwawego rozdziału. W odwecie za krzywdy wyrządzone na zlecenie Adolfa Hitlera musieli zapłacić bardzo wysoką cenę. Dokument przedstawia wstrząsającą historię zemsty, jaka została dokonana na niemieckiej ludności cywilnej. Oprawcy w odwecie używali często metod odzwierciedlających najgorsze działania nazistów. Film zawiera unikalne zeznania naocznych świadków i samych poszkodowanych - po 70. latach wciąż pamiętają horror, jaki przeżyli. Widzowie zobaczą wzruszający i żywy obraz Europy odradzającej się z gruzów.

...( Dane Techniczne )...
Format : Matroska at 1.681 Kb/s
Length : 692 MB for 57 min. 37s 576ms

Video #0 : AVC at 1.392 Kb/s
Aspect : 720 x 576 (1.818) at 25.000 fps

Audio #0 : MPEG Audio at 256 Kb/s
Infos : 2 kanały, 48,0
[...]

»[Zobacz cały opis

==Torrent==
Kategoria: Filmy x264/h264 » Horror


Dodał: Uploader2
Data dodania:
2017-06-04 20:58:08
Rozmiar: 437.30 MB
Seedów: 2
Peerów: 0
Pobrano: 15 razy

Komentarze: 0


...( Info )...
Tytuł: The Moth Diaries / Internat
Ocena: IMDB - 4.7/10 (2431), Filmweb - 4/10 (3319)
Produkcja: USA
Gatunek: Horror
Czas trwania: 78 min.
Premiera: 06.09.2011 - Świat
Reżyseria: Mary Harron
Scenariusz: Rachel Klein

http://www.imdb.com/title/tt1407065/
http://www.filmweb.pl/film/Internat-2011-535232

...( Opis )...
Pełna erotycznego napięcia opowieść o narodzinach kobiecej zmysłowości i strachu przed namiętną siłą, która kusi, zniewala i podstępnie pozbawia życia młode mieszkanki angielskiego internatu.

...( Obsada )...
Sarah Bolger - Rebecca
Lily Cole - Ernessa
Sarah Gadon - Lucie
Melissa Farman - Dora
Laurence Hamelin - Sofia
Scott Speedman - Pan Davies
Valerie Tian - Charlie
Judy Parfitt - Panna Rood

...( Dane Techniczne )...
Format: MPEG-4 at 744 Kb/s
Length: 437 MB for 1h 22 min. 7s 381ms

Video #0: AVC at 640 Kb/s
Aspect: 720 x 384 (1.875) at 23.976 fps

Audio #0: AAC at 96,0 Kb/s
Infos: 2 kanały, 48,0 KHz

==Torrent==
Kategoria: Filmy x264/h264 » Horror


Dodał: Truski
Data dodania:
2017-05-10 23:41:52
Rozmiar: 3.31 GB
Seedów: 1827
Peerów: 909
Pobrano: 15 razy

Komentarze: 0


...( Info )...

Tytuł............................................: The Black Room
Ocena.............................................: IMDB - 5.6/10 (35)
Produkcja.........................................: USA
Gatunek...........................................: Horror
Czas trwania......................................: 91 min.
Premiera..........................................: BRAK DANYCH
Reżyseria........................................: Rolfe Kanefsky
Scenariusz........................................: Rolfe Kanefsky

...( Opis )...

Po przeprowadzce do wymarzonego domu młoda para odkrywa w piwnicy mroczny sekret, który przebywał tam od lat.

...( Obsada )...

John Michaelson,
Jeff Dylan Graham,
Arthur Brown,
Caleb Scott

...( Dane Techniczne )...

Video
ID : 1
Format : AVC
Format/Info : Advanced Video Codec
Format profile : High@L4
Format settings, CABAC : Yes
Format settings, ReFrames : 5 frames
Codec ID : V_MPEG4/ISO/AVC
Duration : 1h 34mn
Bit
[...]

»[Zobacz cały opis

==Torrent==
Kategoria: Filmy x264/h264 » Horror


Dodał: topp2p
Data dodania:
2017-05-08 15:56:07
Rozmiar: 653.76 MB
Seedów: 37
Peerów: 107
Pobrano: 125 razy

Komentarze: 0


...( Info )...

Produkcja: USA
Gatunek: Horror
Premiera: 28 kwietnia 2017 (Polska), 23 stycznia 2017 (świat)
Reżyseria: Jordan Peele
Scenariusz: Jordan Peele

...( Opis )...

Historia młodego czarnoskórego chłopaka, Chrisa Washingtona (Daniel Kaluuya), który wybiera się z zapoznawczą wizytą do posiadłości rodziców jego białej dziewczyny – Rose Armitage (znana z serialu "Dziewczyny" Allison Williams). Szybko orientuje się, że atmosfera domu jest, mówiąc delikatnie, dziwna. Nie spodziewa się jednak, że powodem zaproszenia nie jest wyłącznie chęć poznania go przez rodziców Rose. Chris wierzy, że nerwowa atmosfera panująca w domu Armitage’ów wynika z przyczyn rasowych. Niedługo jednak odkryje zadziwiającą prawdę. Prawdę, jakiej nie mógł się spodziewać...

...( Obsada )...

★ Daniel Kaluuya .... Chris Washington
★ Allison Williams .... Rose Armitage
★ Catherine Keener .... Missy Armitage
★ Bradley Whitford .... Dean Armitage
★ Caleb Landry Jones .... Jeremy Armitage
★ Mar
[...]

»[Zobacz cały opis

==Torrent==
Kategoria: Filmy x264/h264 » Horror


Dodał: topp2p
Data dodania:
2017-04-27 08:21:24
Rozmiar: 1.42 GB
Seedów: 132
Peerów: 75
Pobrano: 63 razy

Komentarze: 0


...( Info )...

Reżyseria: Steven Kostanski, Jeremy Gillespie
Scenariusz: Jeremy Gillespie, Steven Kostanski
Gatunek: Horror
Produkcja: Kanada
Premiera: 31 marca 2017 (świat)

...( Opis )...

Film opowiada o policjancie, który wiezie pewnego człowieka do lokalnego szpitala. Wkrótce pracownicy i pacjenci zostają uwięzieni przez przerażające, nieziemskie zagrożenie i zmuszeni do zagłębienia się w głąb budynku, aby uciec z koszmaru.

...( Obsada )...

★ Kathleen Munroe .... Allison
★ Ellen Wong .... Kim
★ Aaron Poole .... Daniel Carter
★ Kenneth Welsh .... Dr Richard Powell
★ Art Hindle .... Mitchell
★ Daniel Fathers .... Vincent
★ Stephanie Belding .... Beverly
★ Evan Stern .... James

...( Dane Techniczne )...

Release : The.Void.2016.BDRip.x264.AC3-Manning
Format : Matroska at 2.249 kb/s
Length : 1,42 GB for 1 h 30 min 36s 395 ms
Video #0 : AVC at 1.800 kb/s
Aspect : 720 x 304 (2.368) at 23.976 fps
Audio #0 : AC-3 at 448 kb/s
Infos : 6 kanałów, 48,0 kHz

[...]

»[Zobacz cały opis

==Torrent==
Kategoria: Filmy x264/h264 » Horror


Dodał: Uploader2
Data dodania:
2017-04-26 08:17:16
Rozmiar: 375.54 MB
Seedów: 5
Peerów: 7
Pobrano: 27 razy

Komentarze: 0


...( Info )...
Tytuł: Recreator / Rekreator
Ocena: IMDB - 4/10 (596), Filmweb - 4.1/10 (231)
Produkcja: USA
Gatunek: Horror, Sci-Fi
Czas trwania: 91 min.
Premiera: 12.08.2012 - Polska, 17.02.2012 - Świat
Reżyseria: Gregory Orr
Scenariusz: Gregory Orr
Aktorzy: Stella Maeve, Alexander Nifong, J. Mallory-McCree
Muzyka:Jeff Carruthers, Rick Conrad
Zdjęcia: David Tumblety

http://www.imdb.com/title/tt1540005/
http://www.filmweb.pl/film/Rekreator-2012-548878

...( Opis )...
Troje przyjaciół podczas kempingu natyka się na sekretne laboratorium tajemniczego naukowca z pasją klonowania. Dzieciaki spotykają swoje klony, które są od nich szybsze i silniejsze. Tracy, Craig i Derek zostają uwięzieni przez swoje duplikaty a ich jedyną szansą jest przechytrzenie kopii i ucieczka zanim zostaną zastąpieni. (filmweb.pl)

...( Obsada )...
Stella Maeve ... Tracy Bernstein / Tracy 2
Alexander Nifong ... Craig Carlson / Craig 2 (as Alexander Paul Nifong)
J. Mallory McCree ... Derek Joh
[...]

»[Zobacz cały opis

==Torrent==
Kategoria: Filmy x264/h264 » Horror


Dodał: FOX1994
Data dodania:
2017-04-18 14:15:17
Rozmiar: 2.64 GB
Seedów: 27
Peerów: 162
Pobrano: 53 razy

Komentarze: 0


-------------------------------------------
======== Rip by FOX ========
======== PREMIERA ========
-------------------------------------------

...( Info )...

Produkcja: USA
Gatunek: Horror
Premiera: 6 maja 2011 (świat)
Reżyseria: Israel Luna
Scenariusz: Israel Luna

...( Opis )...

Podczas studenckiej imprezy z tabliczką ouija pojawia się duch, który zamienia zwykły wieczór w niewyobrażalny horror.

...( Obsada )...

★ Justin Armstrong .... Michael
★ Dave Clark .... Joseph
★ Miranda Martinez .... Lisa Mendoza
★ Swisyzinna .... LyNette
★ Taylor Terry .... Szalona kobieta
★ Carson Underwood .... Brandon
★ Eric Window .... Calvin

...( Dane Techniczne )...

Ogólne:
Format : Matroska
Rozmiar pliku : 2,64 GB
Czas trwania : 1 h 31 min
Całkowita przepływność bitów : 4.120 kb/s

Wideo:
Format : AVC
ID kodeka : V_MPEG4/ISO/AVC
Czas trwania : 1 h 31 min
Przepływność bitów : 3.846 kb/s
Szerokość : 1.920 pikseli
Wysokość : 1.0
[...]

»[Zobacz cały opis

==Torrent==
Kategoria: Filmy x264/h264 » Horror


Dodał: Truski
Data dodania:
2017-04-07 21:55:22
Rozmiar: 3.13 GB
Seedów: 5941
Peerów: 4476
Pobrano: 48 razy

Komentarze: 0


...( Info )...

Produkcja: Kanada
Gatunek: Horror
Premiera: 31 marca 2017 (świat)
Reżyseria: Jeremy Gillespie
Scenariusz: Jeremy Gillespie, Steven Kostanski

...( Opis )...

Podczas rutynowego patrolu policjant trafia na rannego mężczyznę. Gdy zabiera go do położonego na pustkowiu szpitala, odkrywa, że tajemniczy nieznajomy oraz pozostali pacjenci zaczynają przechodzić przerażającą metamorfozę. Wraz z kilkoma napotkanymi osobami policjant rozpoczyna walkę o przetrwanie.

...( Obsada )...

★ Kathleen Munroe .... Allison
★ Ellen Wong .... Kim
★ Aaron Poole .... Daniel Carter
★ Kenneth Welsh .... Dr Richard Powell
★ Art Hindle .... Mitchell
★ Daniel Fathers .... Vincent
★ Stephanie Belding .... Beverly
★ Evan Stern .... James

...( Dane Techniczne )...

Video
ID : 1
Format : AVC
Format/Info : Advanced Video Codec
Format profile : High@L4
Format settings, CABAC : Yes
Format settings, ReFrames : 5 frames
Codec ID : V_MPEG4/ISO/AVC
Duration : 1h 30mn
Bit ra
[...]

»[Zobacz cały opis

==Torrent==
Kategoria: Filmy x264/h264 » Horror


Dodał: Uploader2
Data dodania:
2017-04-06 12:30:41
Rozmiar: 434.96 MB
Seedów: 4
Peerów: 0
Pobrano: 10 razy

Komentarze: 0


...( Info )...
Tytuł: Boogeyman / Licho
Ocena: IMDB - 3.9/10 (410), Filmweb - 3.2/10 (663)
Czas trwania: 1 godz. 25 min.
Gatunek: Horror
Produkcja: USA
Premiera: 11.08.2012 - Świat
Reżyseria: Jeffery Scott Lando
Scenariusz: David Reed
Muzyka: Claude Foisy
Zdjęcia: Alexander Krumov

http://www.imdb.com/title/tt2118737/
http://www.filmweb.pl/film/Licho-2012-662891

...( Opis )...
Po tragicznej śmierci matki bracia Isaac (Danny Horn) i Jacob (Gabriel Steele) są wychowywani przez ojca policjanta (Eddie McClintock). Pewnego dnia podczas gry w futbol jeden z przyjaciół Isaaca wrzuca dla żartu telefon Jacoba przez okno starego domu należącego do zdziwaczałego starca, Skinnera. Nie mogąc liczyć na wsparcie starszego brata, Jacob sam udaje się na teren posesji, o której wśród miejscowej młodzieży krążą przerażające historie. W trakcie poszukiwań otwiera drzwi na poddaszu, nieświadomie uwalniając przetrzymywaną tam bestię o biblijnym rodowodzie. Chłopcy, spłoszeni nagłym pojawie
[...]

»[Zobacz cały opis

==Torrent==
Kategoria: Filmy x264/h264 » Akcja


Dodał: sonywwo
Data dodania:
2017-03-23 18:12:47
Rozmiar: 2.89 GB
Seedów: 26
Peerów: 2
Pobrano: 128 razy

Komentarze: 0


...( Info )...

Produkcja: USA
Gatunek: Horror, Akcja
Premiera: 2 grudnia 2016 (Polska), 24 listopada 2016 (świat)
Reżyseria: Anna Foerster
Scenariusz: Cory Goodman

...( Opis )...

Kolejna część przebojowej serii o rywalizujących na śmierć i życie wampirach i Lykanach. Dwa zwaśnione światy przenikają się w brutalnej walce o supremację i przeżycie. W postać pięknej i przebiegłej Selene ponownie wcieli się Kate Beckinsale.

...( Obsada )...

★ Kate Beckinsale .... Selene
★ Theo James .... David
★ Tobias Menzies .... Marius
★ Lara Pulver .... Semira
★ Charles Dance .... Thomas
★ James Faulkner .... Cassius
★ Peter Andersson .... Vidar
★ Clementine Nicholson .... Lena

...( Dane Techniczne )...

Kopia miniHD 1080p

Wersja językowa: polski lektor i angielska
standard dźwięku: Dolby Digital 5.1
napisy: polskie i angielskie
plik: mkv

General : Underworld.Blood.Wars.2016.MULTi.m1080p.BDRip.h264.AC3-KSQ.mkv
Format : Matroska at 4.526 Kb/s
Length : 2,89 GB fo
[...]

»[Zobacz cały opis

==Torrent==
Kategoria: Filmy x264/h264 » Akcja


Dodał: sonywwo
Data dodania:
2017-03-23 18:07:40
Rozmiar: 8.73 GB
Seedów: 64
Peerów: 22
Pobrano: 89 razy

Komentarze: 0


...( Info )...

Produkcja: USA
Gatunek: Horror, Akcja
Premiera: 2 grudnia 2016 (Polska), 24 listopada 2016 (świat)
Reżyseria: Anna Foerster
Scenariusz: Cory Goodman

...( Opis )...

Kolejna część przebojowej serii o rywalizujących na śmierć i życie wampirach i Lykanach. Dwa zwaśnione światy przenikają się w brutalnej walce o supremację i przeżycie. W postać pięknej i przebiegłej Selene ponownie wcieli się Kate Beckinsale.

...( Obsada )...

★ Kate Beckinsale .... Selene
★ Theo James .... David
★ Tobias Menzies .... Marius
★ Lara Pulver .... Semira
★ Charles Dance .... Thomas
★ James Faulkner .... Cassius
★ Peter Andersson .... Vidar
★ Clementine Nicholson .... Lena

...( Dane Techniczne )...

wersja językowa: polski lektor i angielska
język oryginału: angielski
napisy: polskie, angielskie
standard dźwięku: 5.1 DTS-HD MA, 5.1 DTS,DD 5.1
plik: .mkv

General : Underworld.Blood.Wars.2016.MULTi.1080p.BluRay.x264.AC3.DTS-HD.MA.5.1-KSQ
Format : Matroska at 13,
[...]

»[Zobacz cały opis

==Torrent==
Kategoria: Filmy x264/h264 » Akcja


Dodał: RIAS
Data dodania:
2017-03-17 19:21:16
Rozmiar: 3.29 GB
Seedów: 114
Peerów: 103
Pobrano: 64 razy

Komentarze: 0


...( Info )...

Produkcja: Australia, Francja, Kanada, Niemcy, USA
Gatunek: Horror, Akcja
Premiera: 27 stycznia 2017 (Polska), 13 grudnia 2016 (świat)
Reżyseria: Paul W.S. Anderson
Scenariusz: Paul W.S. Anderson

...( Opis )...

Kolejna odsłona kultowej filmowej serii opartej na jednej z najpopularniejszych w historii gier komputerowych. Piękna i niebezpieczna Alice (Milla Jovovich) zmierzy się z kolejnymi wrogami, którzy zagrażają światu. Również ona nie może czuć się bezpieczna. Pierwsza część filmu miała premierę w 2002 roku, od tego czasu seria zdobyła serca fanów na całym świecie, przynosząc prawie miliard dolarów dochodu. Fenomen serii opiera się na wybuchowej mieszance kina akcji, science fiction, horroru, thrillera i specyficznego poczucia humoru.

...( Obsada )...

★ Milla Jovovich .... Alice / Alicia Marcus
★ Iain Glen .... Dr Isaacs
★ Ali Larter .... Claire Redfield
★ Shawn Roberts .... Wesker
★ Eoin Macken .... Doc
★ Fraser James .... Razor
★ Ruby Rose
[...]

»[Zobacz cały opis

==Torrent==
Kategoria: Filmy x264/h264 » Horror


Dodał: sonywwo
Data dodania:
2017-03-09 22:09:43
Rozmiar: 2.77 GB
Seedów: 8
Peerów: 8
Pobrano: 18 razy

Komentarze: 0


...( Info )...

Produkcja: Indie, Wielka Brytania
Gatunek: Horror
Premiera: 15 kwietnia 2016 (Polska), 24 lutego 2016 (świat)
Reżyseria: Johannes Roberts
Scenariusz: Johannes Roberts, Ernest Riera

...( Opis )...

Maria (Sarah Wayne Callies) mieszka wraz z rodziną w egzotycznych Indiach. Wiedzie szczęśliwe życie do dnia, w którym jej kilkuletni syn ginie w wypadku samochodowym. Zrozpaczona Maria odkrywa, że istnieje odwieczny rytuał, który pozwala żywym nawiązać ostatni kontakt z umarłymi i pożegnać się z nimi. Wyrusza w podróż do starożytnej świątyni, w której tajemnicze drzwi pełnią rolę portalu między dwoma światami. Na miejscu Maria łamie złożoną wcześniej przysięgę i otwiera drzwi, które miały na zawsze pozostać zamknięte. Narusza tym samym równowagę między życiem i śmiercią, nie zdając sobie sprawy, jakie będą konsekwencje jej czynu.

...( Obsada )...

★ Sarah Wayne Callies .... Maria
★ Jeremy Sisto .... Michael
★ Sofia Rosinsky .... Lucy
★ Logan Creran .... Oliv
[...]

»[Zobacz cały opis

==Torrent==
Kategoria: Filmy x264/h264 » Akcja


Dodał: sonywwo
Data dodania:
2017-03-08 12:15:36
Rozmiar: 2.49 GB
Seedów: 4
Peerów: 281
Pobrano: 84 razy

Komentarze: 0


...( Info )...

Produkcja: USA
Gatunek: Horror, Akcja
Premiera: 2 grudnia 2016 (Polska), 24 listopada 2016 (świat)
Reżyseria: Anna Foerster
Scenariusz: Cory Goodman

...( Opis )...

Kolejna część przebojowej serii o rywalizujących na śmierć i życie wampirach i Lykanach. Dwa zwaśnione światy przenikają się w brutalnej walce o supremację i przeżycie. W postać pięknej i przebiegłej Selene ponownie wcieli się Kate Beckinsale.

...( Obsada )...

★ Kate Beckinsale .... Selene
★ Theo James .... David
★ Tobias Menzies .... Marius
★ Lara Pulver .... Semira
★ Charles Dance .... Thomas
★ James Faulkner .... Cassius
★ Peter Andersson .... Vidar
★ Clementine Nicholson .... Lena

...( Dane Techniczne )...

Wersja językowa: angielska + napisy pl
Dźwięk: Dolby Digital 5.1
Rodzaj kompresji: Konwersja MKV (2-pass)
Kodek: MPEG-4/AVC (H.264)

Underworld.Blood.Wars.2016.PLSUBBED.m1080p.WEB-DL.DD5.1.h264-KSQ

Format : Matroska at 3.882 Kb/s
Length : 2,49 GB for 1h 31 min.
[...]

»[Zobacz cały opis

==Torrent==
Kategoria: Filmy x264/h264 » Horror


Dodał: Truski
Data dodania:
2017-02-18 00:17:47
Rozmiar: 2.82 GB
Seedów: 1966
Peerów: 1466
Pobrano: 47 razy

Komentarze: 0


...( Info )...

Produkcja: USA
Gatunek: Horror
Premiera: 22 stycznia 2017 (świat)
Reżyseria: St. Vincent
Scenariusz: Jovanka Vuckovic, Jennifer Chambers Lynch

...( Opis )...

Cztery przerażające historie. Za kamerą i przed nią wykazują się wyłącznie kobiety. #takieczasy

...( Obsada )...

★ Curt Cornelius .... Dr Roman "Her Only Living Son"
★ Lisa Costanza .... Cora, kelnerka "Her Only Living Son"
★ Michael Dyson .... Mężczyzna "The Box"
★ Natalie Brown .... Susan Jacobs "The Box"
★ Mike Doyle .... Chet "The Box"
★ Peter DaCunha .... Danny Jacobs "The Box"
★ Peyton Kennedy .... Jenny Jacobs "The Box"
★ Christina Kirk .... Cora "Her Only Living Son"

...( Dane Techniczne )...

Video
ID : 1
Format : AVC
Format/Info : Advanced Video Codec
Format profile : High@L4
Format settings, CABAC : Yes
Format settings, ReFrames : 5 frames
Codec ID : V_MPEG4/ISO/AVC
Duration : 1h 20mn
Bit rate : 4 510 Kbps
Width : 1 920 pixels
Height : 796 pixels
Display aspect
[...]

»[Zobacz cały opis

==Torrent==
Kategoria: Filmy x264/h264 » Horror


Dodał: Truski
Data dodania:
2017-02-10 19:42:07
Rozmiar: 2.79 GB
Seedów: 13
Peerów: 0
Pobrano: 23 razy

Komentarze: 0


...( Info )...

Produkcja: USA
Gatunek: Horror
Premiera:
Reżyseria: Alexander Babaev
Scenariusz: Alexander Babaev

...( Opis )...

Emily (Margaret Judson) wraz z narzeczonym - Jessem (Devin Goodsell) kupuje nowy dom, aby zapewnić lepsze warunki swojemu choremu bratu - Zachowi (Michael Johnston). Na miejscu odnajdują drewniane tabliczki z wyrytymi symbolami, które niszczą i przeznaczają na opał. W nocy kobiecie śnią się przerażające koszmary, a następnego ranka odkrywa, że Zach jest kompletnie zdrowy. Ich szczęście nie trwa jednak długo, gdyż wkrótce dochodzi do serii nadprzyrodzonych zjawisk.

...( Obsada )...

★ Michael Johnston .... Zach
★ Margaret Judson .... Emily
★ Devin Goodsell .... Jesse
★ Mark Furze .... Woodrow
★ Bobby T .... Michelle
★ Nick Saso .... Dennis
★ Greg Travis .... Billy

...( Dane Techniczne )...

Video
ID : 1
Format : AVC
Format/Info : Advanced Video Codec
Format profile : High@L4
Format settings, CABAC : Yes
Format settings, ReFra
[...]

»[Zobacz cały opis

==Torrent==
Kategoria: Filmy x264/h264 » Horror


Dodał: Truski
Data dodania:
2017-02-09 16:06:24
Rozmiar: 3.17 GB
Seedów: 21859
Peerów: 12273
Pobrano: 166 razy

Komentarze: 0


...( Info )...

Produkcja: USA
Gatunek: Horror, Akcja
Premiera: 2 grudnia 2016 (Polska), 24 listopada 2016 (świat)
Reżyseria: Anna Foerster
Scenariusz: Cory Goodman

...( Opis )...

Kolejna część przebojowej serii o rywalizujących na śmierć i życie wampirach i Lykanach. Dwa zwaśnione światy przenikają się w brutalnej walce o supremację i przeżycie. W postać pięknej i przebiegłej Selene ponownie wcieli się Kate Beckinsale.

...( Obsada )...

★ Kate Beckinsale .... Selene
★ Theo James .... David
★ Tobias Menzies .... Marius
★ Lara Pulver .... Semira
★ Charles Dance .... Thomas
★ James Faulkner .... Cassius
★ Peter Andersson .... Vidar
★ Clementine Nicholson .... Lena

...( Dane Techniczne )...

Video
ID : 1
Format : AVC
Format/Info : Advanced Video Codec
Format profile : High@L4
Format settings, CABAC : Yes
Format settings, ReFrames : 5 frames
Codec ID : V_MPEG4/ISO/AVC
Duration : 1h 31mn
Bit rate : 4 459 Kbps
Width : 1 920 pixels
Height : 796 pixels
[...]

»[Zobacz cały opis

==Torrent==
Kategoria: Filmy x264/h264 » Horror


Dodał: everdarksoul
Data dodania:
2017-02-08 06:26:00
Rozmiar: 0.98 GB
Seedów: 61
Peerów: 198
Pobrano: 11 razy

Komentarze: 0


...( Info )...

gatunek: horror, romans / typ: film pełnometrażowy
produkcja: Indie / data emisji: 2016 (świat)
scenariusz i reżyseria: Vikram Bhatt

...( Opis )...

Shaina i Rehan są młodym małżeństwem. Przyjeżdżają do Rumunii - kraju, w którym oboje byli już wcześniej, tam poznali się i pokochali - ponieważ Rehan otrzymał wyjątkowo korzystną ofertę pracy. Oprócz lukratywnego kontraktu, firma oferuje im również okazały dom na czas pobytu - jednak już wkróce po przeprowadzce, zaczynają się dziać w nim różne dziwne rzeczy...
Shaina niemal od początku podejrzewa wpływ złych mocy, lecz Rehan jest sceptyczny. Nawet, gdy podczas jego podróży służbowej, przerażona dzwoni do niego i opisuje mu nasilającą się paranormalną aktywność, ten bagatelizuje sprawę. Dopiero gdy pewnej nocy Shaina usiłuje go zabić - wreszcie dostrzega roblem i postanawia działać.
Początkowo zwracają się o pomoc do miejscowego księdza, lecz ten nie jest w stanie im pomóc. Wtedy na odsiecz przybywa też były chło
[...]

»[Zobacz cały opis

==Torrent==
Kategoria: Filmy x264/h264 » Horror


Dodał: Truski
Data dodania:
2017-02-03 23:57:27
Rozmiar: 3.23 GB
Seedów: 274
Peerów: 37
Pobrano: 84 razy

Komentarze: 0


...( Info )...

Produkcja: Wielka Brytania
Gatunek: Horror
Premiera: 24 marca 2017 (Polska), 29 września 2016 (świat)
Reżyseria:
Scenariusz: Mark Huckerby, Nick Ostler

...( Opis )...

Gdy młoda dziewczyna puka do drzwi opuszczonego domu, przywołuje do życia złowieszczą istotę.

...( Obsada )...

★ Katee Sackhoff .... jako:
★ Lucy Boynton .... jako:
★ Javier Botet .... Tira
★ Nick Moran ....
★ Pooneh Hajimohammadi ....

...( Dane Techniczne )...

Video
ID : 1
Format : AVC
Format/Info : Advanced Video Codec
Format profile : High@L4
Format settings, CABAC : Yes
Format settings, ReFrames : 5 frames
Codec ID : V_MPEG4/ISO/AVC
Duration : 1h 33mn
Bit rate : 4 493 Kbps
Width : 1 920 pixels
Height : 796 pixels
Display aspect ratio : 2.40:1
Frame rate mode : Constant
Frame rate : 23.976 (24000/1001) fps
Color space : YUV
Chroma subsampling : 4:2:0
Bit depth : 8 bits
Scan type : Progressive
Bits/(Pixel*Frame) : 0.123
Stream size : 2.92 GiB (90%)
Tit
[...]

»[Zobacz cały opis

==Torrent==
Kategoria: Filmy x264/h264 » Akcja


Dodał: everdarksoul
Data dodania:
2017-02-02 12:14:26
Rozmiar: 1.90 GB
Seedów: 32
Peerów: 0
Pobrano: 50 razy

Komentarze: 0


...( Info )...

gatunek: akcja, fantasy, horror / typ: film pełnometrażowy
produkcja: Australia / data emisji: 15-11-2007 (Australia)
scenariusz i reżyseria: Shane Abbess
wsp. scenariusza: Matt Hylton Todd

...( Opis )...

Gabriel to mroczny film akcji, którego akcja rozgrywa się w czyśćcu. Opowiada o zmaganiach między Archaniołami a Upadłymi Aniołami o kontrolę nad miastem i jego ludnością, składającą się z odrodzonych dusz.
Obecnie w czyśćcu króluje Ciemność. Gabriel jako ostatni z siedmiu Archaniołów zostaje zesłany by przywrócić temu miejscu światło. Niestety aby tego dokonać musi przybrać ludzką formę.
W tym mrocznym miejscu ludzkich dusz, samotny Archanioł będzie musiał stawić czoło swoim ludzkim uczuciom - co okaże się równie trudne jak walka z Upadłymi...

...( Obsada )...

Andy Whitfield jako Gabriel
Samantha Noble jako Jade
Dwaine Stevenson jako Sammael
Michael Piccirilli jako Asmodeus
Jack Campbell jako Raphael
Erika Heynatz jako Lilith
... i inni ...

[...]

»[Zobacz cały opis

==Torrent==
Kategoria: Filmy x264/h264 » Horror


Dodał: Truski
Data dodania:
2017-02-01 23:56:48
Rozmiar: 593.98 MB
Seedów: 31
Peerów: 0
Pobrano: 62 razy

Komentarze: 0


...( Info )...

Produkcja: Kanada
Gatunek: Horror
Premiera: 16 lipca 2016 (świat)
Reżyseria: Jeff Maher
Scenariusz: Cody Calahan, Jeff Maher

...( Opis )...

Czwórka przyjaciół, chcąc świętować urodziny jednego z nich wynajmuje pokój w miejscowym hotelu. Nikt z nich nie wie, że pokój nr 18, na który się decydują skrywa w sobie mroczną tajemnicę. Znajduje się w nim łóżko wykonane z drzewa, na którym w średniowieczu wieszano skazańców. Pozostanie na nim to konfrontacja z przerażającymi halucynacjami, które prowadzą do autodestrukcji. Jaką tajemnicę kryje łóżko? Czy uda się ją odkryć? Wreszcie, jakie znaczenie w tym wszystkim mają dawne grzechy?

...( Obsada )...

★ Colin Price .... Virgil
★ Alysa King .... Sandy
★ Gwenlyn Cumyn .... Nancy
★ Dennis Andres .... Oficer policji
★ George Krissa .... Córka Virgila
★ Andre Guantanamo .... Jake

...( Dane Techniczne )...

Format...............: Matroska at 982 kb/s
Length...............: 594 MiB for 1 h 24 min 31s 517 m
[...]

»[Zobacz cały opis

==Torrent==
Kategoria: Filmy x264/h264 » Horror


Dodał: Truski
Data dodania:
2017-01-20 15:40:47
Rozmiar: 2.65 GB
Seedów: 2352
Peerów: 3388
Pobrano: 59 razy

Komentarze: 0


...( Info )...

Tytuł............................................: Dead Story
Ocena.............................................: IMDB - 8.7/10 (131)
Produkcja.........................................: USA
Gatunek...........................................: Horror
Czas trwania......................................: 81 min.
Premiera..........................................: 20.01.2017 - Świat
Reżyseria........................................: Suneel Tripuraneni
Scenariusz........................................: Bruce Durbin, Suneel Tripuraneni

...( Opis )...

Po przeprowadzce do nowego domu, z dala od miejskiego zgiełku, małżeństwo urządza swoją pierwszą domówkę. Gdy jeden z gości opowiada im historię, która doprowadzi do ich śmierci, wyśmiewają go. Z czasem jednak zaczynają w nią coraz bardziej wierzyć.

...( Obsada )...

Kelsey Deanne,
Chase Austin,
Jessica Willis,
Sheril Rodgers

...( Dane Techniczne )...

Video
ID : 1
Format : AVC
Format/Info : Advan
[...]

»[Zobacz cały opis

==Torrent==
Kategoria: Filmy x264/h264 » Horror


Dodał: Truski
Data dodania:
2017-01-09 20:41:00
Rozmiar: 3.27 GB
Seedów: 775
Peerów: 322
Pobrano: 16 razy

Komentarze: 0


...( Info )...

Produkcja: USA
Gatunek: Horror
Premiera:
Reżyseria: Glenn Douglas Packard
Scenariusz: Darryl F. Gariglio, Glenn Douglas Packard

...( Opis )...

Grupa przyjaciół wraca do domu z kolegą, z którym dzielą sekret. Dowiadują się, że starsze tajemnice mogą okazać się śmiercionośne.

...( Obsada )...

★ Daniel Wilkinson .... Ben Holister Jr. / Pitchfork
★ Brian Raetz .... Lenox
★ Lindsey Nicole .... Flo

...( Dane Techniczne )...

Video
ID : 1
Format : AVC
Format/Info : Advanced Video Codec
Format profile : High@L4
Format settings, CABAC : Yes
Format settings, ReFrames : 5 frames
Codec ID : V_MPEG4/ISO/AVC
Duration : 1h 34mn
Bit rate : 4 462 Kbps
Width : 1 920 pixels
Height : 808 pixels
Display aspect ratio : 2.40:1
Frame rate mode : Constant
Frame rate : 23.976 fps
Color space : YUV
Chroma subsampling : 4:2:0
Bit depth : 8 bits
Scan type : Progressive
Bits/(Pixel*Frame) : 0.120
Stream size : 2.95 GiB (90%)
Title : Pitchfork.2016.1080p
[...]

»[Zobacz cały opis

==Torrent==
Kategoria: Filmy x264/h264 » Horror


Dodał: dragon20010
Data dodania:
2017-01-06 15:29:50
Rozmiar: 924.80 MB
Seedów: 8
Peerów: 2
Pobrano: 54 razy

Komentarze: 0


Produkcja: USA
Gatunek: Horror, Akcja
Czas trwania: 80 min.
Premiera: 14.10.2016 - Świat
Reżyseria: Dan Berk, Robert Olsen
Scenariusz: Nick Damici

...( Opis )...

Martin przemierza bezkresne krainy splądrowane przez wampiry w poszukiwaniu swego mentora, Mistera, pogromcy wampirów.

...( Obsada )...

Connor Paolo
Nick Damici
Laura Abramsen
A.C. Peterson

...( Dane Techniczne )...

Format : Matroska at 1.598 Kb/s
Length : 925 MB for 1h 20 min. 54s 975ms

Video #0 : AVC at 1.400 Kb/s
Aspect : 720 x 406 (1.773) at 23.976 fps

Audio #0 : AC-3 at 192 Kb/s
Infos : 2 kanały, 48,0 KHz
Language : en

Wtopione Napisy PL

==Torrent==
Kategoria: Filmy x264/h264 » Horror


Dodał: Truski
Data dodania:
2017-01-05 12:14:39
Rozmiar: 3.56 GB
Seedów: 3025
Peerów: 2299
Pobrano: 44 razy

Komentarze: 0


...( Info )...

Produkcja: USA
Gatunek: Horror
Premiera: 28 października 2016 (Polska), 20 października 2016 (świat)
Reżyseria: Mike Flanagan
Scenariusz: Mike Flanagan, Jeff Howard

...( Opis )...

Gra w Ouija jeszcze się nie skończyła i przyniesie kolejne śmiertelne żniwo. Znów znajdziemy się w przerażających, pełnych tajemnic zaświatach, gdzie nikomu nie można ufać.

...( Obsada )...

★ Annalise Basso .... Lina Zander
★ Elizabeth Reaser .... Alice Zander
★ Lulu Wilson .... Doris Zander
★ Henry Thomas .... Ojciec Tom Hogan
★ Parker Mack .... Mikey
★ Halle Charlton .... Ellie
★ Alexis G. Zall .... Betty
★ Doug Jones .... Upiór Marcus

...( Dane Techniczne )...

Video
ID : 1
Format : AVC
Format/Info : Advanced Video Codec
Format profile : High@L4
Format settings, CABAC : Yes
Format settings, ReFrames : 4 frames
Codec ID : V_MPEG4/ISO/AVC
Duration : 1h 38mn
Width : 1 916 pixels
Height : 1 032 pixels
Display aspect ratio : 1.85:1
Frame rate mode : Con
[...]

»[Zobacz cały opis

Przeglądaj
1 - 50 | 51 - 100 | 101 - 150 | 151 - 200 | 201 - 202
<< Poprzednia      Następna >>

stat4u Najlepsze strony Torrentowe Torrenty