Kategorie
Ranking
RSS
Programy

Statystyki
Użytkowników:
Zarejestrowanych wczoraj:
Zarejestrowanych dzisiaj:
Torrentów:
Dodanych wczoraj:
Dodanych dzisiaj:
Warezów:
Dodanych wczoraj:
Dodanych dzisiaj:
135,024
40
13
144,209
105
44
11,806
0
0
Ostatnie 30
Popularne
w Styczniu
Przeglądaj
<< Poprzednia      Następna >>
1 - 50 | 51 - 100 | 101 - 150 | 151 - 155
Gatunki
Show/Hide [Pokaż/Ukryj]
Po kliknięciu ”Pokaż/Ukryj” możesz wyszukać pozycję z wybranymi gatunkami
(Pamiętaj że np. filmy mogą mieć więcej niż jeden gatunek)

Wybrane gatunki z kategorii: Muzyka

Rhythm and blues/Gospel (155),
==Torrent==
Kategoria: Muzyka » Rhythm and blues/Gospel


Dodał: Beatrix
Data dodania:
2021-01-21 21:31:28
Rozmiar: 153.91 MB
Seedów: 286
Peerów: 69
Pobrano: 8 razy

Komentarze: 0


...( Info )...

Artist: Ike & Tina Turner
Album: Live at Circus Krone 1973
Year: 2021
Genre: R&B
Format/Quality: .mp3 320 kbps

...( TrackList )...

01. Intro: Claude Williams "Family Vibes" - "Shaft" - Eddy Burks Introduces "The Ikettes"
02. I Got'cha
03. Eddy Burks Introduces Ike and Tina Turner
04. She Came in Through the Bathroom Window
05. Annie Had a Baby
06. Don't Fight It
07. Get Back
08. Games People Play
09. I Can't Turn You Loose
10. I Want to Take You Higher
11. River Deep Mountain High
12. Come Together
13. Proud Mary
14. Proud Mary-Encore
15. Pick Me up and Take Me
16. With a Little Help from My Friends
17. Honky Tonk Woman
18. Baby Get It On
19. Respect
20. Nutbush City Limits

==Torrent==
Kategoria: Muzyka » Rhythm and blues/Gospel


Dodał: Beatrix
Data dodania:
2021-01-18 20:53:24
Rozmiar: 304.48 MB
Seedów: 635
Peerów: 176
Pobrano: 18 razy

Komentarze: 0


...( Info )...

Artist: Various
Album: Sexy Throwbacks
Year: 2021
Genre: R&B
Format/Quality: .mp3 320 kbps

...( TrackList )...

01. Zendaya, Chris Brown - Something New
02. Adrian Marcel, Sage The Gemini - 2AM. (Explicit Version)
03. Jeremih, Lil Wayne, Natasha Mosley - All The Time
04. Eve, Gwen Stefani - Let Me Blow Ya Mind
05. J Holiday - Bed
06. 6lack - Learn Ya
07. Robin Thicke - Sex Therapy
08. Big Sean, Jhené Aiko - I Know
09. Akon, Snoop Dogg - I Wanna Love You (Album Version Explicit)
10. Niykee Heaton, Migos - Bad Intentions
11. Teyana Taylor, Chris Brown - Do Not Disturb
12. Keyshia Cole - Take Me Away
13. Ludacris, Trey Songz - Sex Room (Album Version Explicit)
14. D'Angelo - Lady
15. Birdman, Jacquees - MIA
16. August Alsina, Chris Brown, Trey Songz - I Luv This Shit (Remix)
17. Noah Kahan - Hold It Down
18. Aminé, Kehlani - Heebiejeebies
19. Keri Hilson - Make Love
20. Tory Lanez - Say It
21. LION BABE - Treat Me Like Fire
22. Ne-Yo - Sexy
[...]

»[Zobacz cały opis

==Torrent==
Kategoria: Muzyka » Rhythm and blues/Gospel


Dodał: Beatrix
Data dodania:
2021-01-17 22:29:15
Rozmiar: 311.71 MB
Seedów: 824
Peerów: 161
Pobrano: 14 razy

Komentarze: 0


...( Info )...

Artist: Various
Album: The Funky 70s
Year: 2021
Genre: R&B / Soul & Funk
Format/Quality: .mp3 320 kbps

...( TrackList )...

01. The Meters - Just Kissed My Baby
02. Tower of Power - Drop It In the Slot
03. Curtis Mayfield - Move On up (Extended Version) [Remix]
04. Chaka Khan - I'm Every Woman
05. Chic - Le Freak
06. The Spinners - The Rubberband Man
07. The Trammps - Disco Inferno
08. Hot Chocolate - You Sexy Thing
09. Fred Wesley & The Horny Horns, Maceo Parker - Up for the Down Stroke (feat. Maceo Parker)
10. Betty Wright - Clean up Woman
11. Booker T. & The MG's - Sticky Stuff
12. The Staple Singers - Chica Boom
13. Kc & The Sunshine Band - (Shake Shake Shake) Shake Your Booty
14. Donny Hathaway - What's Going On (Live)
15. Larry Graham & Graham Central Station, Graham Central Station, Larry Graham - The Jam
16. Rose Royce - You Can't Please Everybody
17. Bootsy Collins - The Pinocchio Theory
18. Eddie Harris - Funkaroma
19. Charles Wrig
[...]

»[Zobacz cały opis

==Torrent==
Kategoria: Muzyka » Rhythm and blues/Gospel


Dodał: Beatrix
Data dodania:
2021-01-17 22:22:03
Rozmiar: 221.25 MB
Seedów: 508
Peerów: 153
Pobrano: 18 razy

Komentarze: 0


...( Info )...

Artist: Various
Album: The Funky 60s
Year: 2021
Genre: R&B / Soul & Funk
Format/Quality: .mp3 320 kbps

...( TrackList )...

01. Aretha Franklin - Chain of Fools
02. The Meters - Cissy Strut
03. The Watts 103rd. Street Rhythm Band - Do Your Thing
04. Ella Fitzgerald - Get Ready
05. Booker T. & The MG's - Green Onions
06. Nat Adderley - Cantaloupe Island
07. Eddie Floyd - Big Bird
08. The Mar-Keys - Last Night
09. Jimmy Norman - Gangster of Love (Pt. 1 & 2)
10. Otis Redding - Nobody's Fault but Mine
11. King Curtis - Spooky
12. Freddie King - Funky
13. Johnnie Taylor - Watermelon Man
14. Lou Johnson - Rock Me Baby
15. Sam & Dave - Hold On, I'm Comin'
16. Eddie Harris - Listen Here
17. Solomon Burke - Get Out of My Life Woman
18. Archie Bell and The Drells - Tighten Up
19. Judy Clay - You Can't Run Away from Your Heart
20. Arthur Conley - One Night Is All I Need
21. Bettye LaVette - Let Me Down Easy
22. Wilson Pickett - Land of 1000 Dances

[...]

»[Zobacz cały opis

==Torrent==
Kategoria: Muzyka » Rhythm and blues/Gospel


Dodał: Beatrix
Data dodania:
2021-01-14 21:58:31
Rozmiar: 167.01 MB
Seedów: 177
Peerów: 53
Pobrano: 10 razy

Komentarze: 0


...( Info )...

Artist: dvsn
Album: Amusing Her Feelings
Year: 2021
Genre: R&B
Format/Quality: .mp3 320 kbps

...( TrackList )...

CD1
01. She Said
02. He Said (feat. Miguel)
03. Blessings
04. Use Somebody

CD2
01. No Good
02. Friends (feat. PARTYNEXTDOOR)
03. Still Pray for You
04. Courtside (feat. Jessie Reyez)
05. Miss Me?
06. No Cryin (feat. Future)
07. dvsn & Ty Dolla $ign - Dangerous City (feat. Buju Banton)
08. So What (feat. Popcaan)
09. Outlandish
10. Keep It Going
11. 'Flawless' Do It Well Pt. 3 (feat. Summer Walker)
12. Greedy
13. Between Us (feat. Snoh Aalegra)
14. A Muse
15. For Us
16. ... Again (feat. Shantel May)

==Torrent==
Kategoria: Muzyka » Rhythm and blues/Gospel


Dodał: Beatrix
Data dodania:
2021-01-09 10:36:39
Rozmiar: 826.00 MB
Seedów: 235
Peerów: 110
Pobrano: 6 razy

Komentarze: 0


...( Info )...

David Bowie
Young Americans (1975)
FLAC LOSSLESS 24bit-96kHz
UK PBTHAL Vinyl Rip


allmusic.com...

David Bowie had dropped hints during the Diamond Dogs tour that he was moving toward R&B, but the full-blown blue-eyed soul of Young Americans came as a shock. Surrounding himself with first-rate sessionmen, Bowie comes up with a set of songs that approximate the sound of Philly soul and disco, yet remain detached from their inspirations; even at his most passionate, Bowie sounds like a commentator, as if the entire album was a genre exercise. Nevertheless, the distance doesn't hurt the album -- it gives the record its own distinctive flavor, and its plastic, robotic soul helped inform generations of synthetic British soul. What does hurt the record is a lack of strong songwriting. "Young Americans" is a masterpiece, and "Fame" has a beat funky enough that James Brown ripped it off, but only a handful of cuts ("Win," "Fascination," "Somebody Up There Likes Me":wink:
[...]

»[Zobacz cały opis

==Torrent==
Kategoria: Muzyka » Rhythm and blues/Gospel


Dodał: Beatrix
Data dodania:
2021-01-07 22:39:22
Rozmiar: 73.14 MB
Seedów: 275
Peerów: 73
Pobrano: 9 razy

Komentarze: 0


...( Info )...

Artist: Jazmine Sullivan
Album: Heaux Tales
Year: 2021
Genre: R&B
Format/Quality: .mp3 320 kbps

...( TrackList )...

01. Bodies (Intro)
02. Antoinette's Tale
03. Pick Up Your Feelings
05. Put It Down
06. On It (feat. Ari Lennox)
07. Donna's Tale
08. Pricetags (feat. Anderson .Paak)
09. Rashida's Tale
10. Lost One
11. Precious' Tale
12. The Other Side
13. Amanda's Tale
14. Girl Like Me (feat. H.E.R.)

==Torrent==
Kategoria: Muzyka » Rhythm and blues/Gospel


Dodał: Beatrix
Data dodania:
2021-01-06 15:49:29
Rozmiar: 212.04 MB
Seedów: 1004
Peerów: 212
Pobrano: 27 razy

Komentarze: 0


...( Info )...

Artist: Toni Braxton
Album: You're Makin' Me High: The Best of Toni Braxton
Year: 2021
Genre: Pop / R&B
Format/Quality: .mp3 320 kbps

...( TrackList )...

01. Un-Break My Heart
02. He Wasn't Man Enough
03. Breathe Again
04. You're Makin' Me High
05. Spanish Guitar
06. I Love Me Some Him
07. Fairy Tale
08. Another Sad Love Song
09. Just Be A Man About It
10. You Mean the World to Me
11. Let It Flow (from "Waiting to Exhale" Original Soundtrack)
12. Love Shoulda Brought You Home
13. I Don't Want To
14. How Many Ways
15. I'm Still Breathing
16. Seven Whole Days
17. There's No Me Without You
18. Hit the Freeway (feat. Loon) (Radio Version with Rap)
19. The Heat
20. Find Me a Man

==Torrent==
Kategoria: Muzyka » Rhythm and blues/Gospel


Dodał: Beatrix
Data dodania:
2021-01-06 12:09:56
Rozmiar: 131.50 MB
Seedów: 569
Peerów: 157
Pobrano: 20 razy

Komentarze: 0


...( Info )...

Artist: Various
Album: Rhythm & Blues Attitude Vol. 1 (All Tracks Remastered)
Year: 2020
Genre: R&B / Soul & Funk
Format/Quality: .mp3 320 kbps

...( TrackList )...

01. Ray Charles - Hit the Road Jack (Remastered 2019)
02. Mac Rebennack, Ronnie Barron - Talk That Talk (Remastered 2019)
03. Aretha Franklin - Won't Be Long (Remastered 2015)
04. Etta James - I Just Want to Make Love to You (Remastered)
05. Ruth Brown - I Don't Know (Remastered)
06. Booker T. & The M.G.s - Lonely Avenue (Remastered)
07. Ben E. King - Stand by Me (Remastered)
08. Carl Holmes & The Commanders - Unchain My Heart (Remastered 2017)
09. LaVern Baker - See See Rider (Remastered 2015)
10. Ray Charles - Hallelujah I Love Her So (Remastered 2015)
11. Clyde McPhatter, Ruth Brown - I Gotta Have You (Remastered 2018)
12. The Chantels - Never Let Go (Remastered 2018)
13. Booker T. & The M.G.s - Mo' Onions (Remastered)
14. Etta James - At Last (Remastered)
15. Aretha Franklin - Do
[...]

»[Zobacz cały opis

==Torrent==
Kategoria: Muzyka » Rhythm and blues/Gospel


Dodał: Beatrix
Data dodania:
2021-01-06 10:49:48
Rozmiar: 122.13 MB
Seedów: 490
Peerów: 100
Pobrano: 20 razy

Komentarze: 0


...( Info )...

Artist: Various
Album: Rhythm & Blues Attitude Vol. 2 (All Tracks Remastered)
Year: 2020
Genre: R&B / Soul & Funk
Format/Quality: .mp3 320 kbps

...( TrackList )...

01. James Brown - Please Please Please (Remastered 2018)
02. Dinah Washington and Brook Benton - Baby (You've Got What It Takes) (Remastered 2018)
03. Bo Diddley - Who Do You Love? (Remastered)
04. Sam Cooke - Twistin' the Night Away (Remastered 2015)
05. LaVern Baker - Voodoo Voodoo (Remastered 2015)
06. The Chantels - The Plea (Remastered 2018)
07. Clyde McPhatter - Come What May (Remastered 2018)
08. James Brown - Good Good Lovin' (Remastered 2018)
09. Mac Rebennack & His Orchstra - Good Times (Remastered 2019)
10. Ray Charles - What'd I Say, Pt. 1 & Pt. 2 (Remastered)
11. James Brown - No, No, No, No (Remastered 2018)
12. The Shirelles - Will You Love Me Tomorrow (Remastered)
13. Willie Dixon, Memphis Slim - Slim's Thing (Remastered)
14. Sam Cooke - Summertime (Remastered 2015)
1
[...]

»[Zobacz cały opis

==Torrent==
Kategoria: Muzyka » Rhythm and blues/Gospel


Dodał: Beatrix
Data dodania:
2021-01-01 19:51:57
Rozmiar: 415.11 MB
Seedów: 171
Peerów: 105
Pobrano: 7 razy

Komentarze: 0


...( Info )...

Artist: VA | Title: Best of R&B 2020
Country: Int. | Genre: RnB
Year: 2020 | Length: 02:57:06
Audio bitrate: 320 kbps
Format / Codec: MP3

...( TrackList )...

01. H.E.R. - I Can\'t Breathe
02. SZA - Hit Different
03. Disclosure - Birthday
04. Jhené Aiko - B.S
05. Kehlani - Can I
06. Anderson .Paak - JEWELZ
07. Beyoncé - BLACK PARADE
08. PARTYNEXTDOOR - BELIEVE IT
09. Jorja Smith - Come Over (feat. Popcaan)
10. Alicia Keys - So Done (feat. Khalid)
11. Kiana Ledé - Chocolate
12. Arlo Parks - Green Eyes
13. Jessie Reyez - COFFIN
14. Kelly Rowland - COFFEE
15. NAO - Woman
16. Victoria Monét - Moment
17. Giveon - Stuck On You
18. Janelle Monáe - Turntables (from the Amazon Original Movie \"All In- The Fight for Democracy\":wink:
19. The Weeknd - After Hours
20. Frank Ocean - Dear April (Side A - Acoustic)
21. Chloe x Halle - Do It
22. John Legend - U Move, I Move (feat. Jhene Aiko)
23. Trey Songz - Back Home (feat. Summer Walker)
24. dvsn - Betwe
[...]

»[Zobacz cały opis

==Torrent==
Kategoria: Muzyka » Rhythm and blues/Gospel


Dodał: Beatrix
Data dodania:
2021-01-01 15:16:30
Rozmiar: 415.11 MB
Seedów: 1550
Peerów: 205
Pobrano: 18 razy

Komentarze: 0


...( TrackList )...

01. H.E.R. - I Can't Breathe
02. SZA - Hit Different
03. Disclosure - Birthday
04. Jhené Aiko - B.S
05. Kehlani - Can I
06. Anderson .Paak - JEWELZ
07. Beyoncé - BLACK PARADE
08. PARTYNEXTDOOR - BELIEVE IT
09. Jorja Smith - Come Over (feat. Popcaan)
10. Alicia Keys - So Done (feat. Khalid)
11. Kiana Ledé - Chocolate
12. Arlo Parks - Green Eyes
13. Jessie Reyez - COFFIN
14. Kelly Rowland - COFFEE
15. NAO - Woman
16. Victoria Monét - Moment
17. Giveon - Stuck On You
18. Janelle Monáe - Turntables (from the Amazon Original Movie "All In- The Fight for Democracy":wink:
19. The Weeknd - After Hours
20. Frank Ocean - Dear April (Side A - Acoustic)
21. Chloe x Halle - Do It
22. John Legend - U Move, I Move (feat. Jhene Aiko)
23. Trey Songz - Back Home (feat. Summer Walker)
24. dvsn - Between Us (feat. Snoh Aalegra)
25. Ty Dolla $ign - By Yourself (feat. Jhené Aiko & Mustard)
26. Summer Walker - My Affection
27. Ella Mai - Not Another Love Song
28.
[...]

»[Zobacz cały opis

==Torrent==
Kategoria: Muzyka » Rhythm and blues/Gospel


Dodał: Beatrix
Data dodania:
2020-12-27 19:45:33
Rozmiar: 163.52 MB
Seedów: 775
Peerów: 197
Pobrano: 14 razy

Komentarze: 0


...( Info )...

Artist: Various
Album: Rhythm & Blues Ladies (All Tracks Remastered)
Year: 2020
Genre: R&B / Soul & Funk
Quality: Mp3 320 kbps

...( TrackList )...

01. The Crystals - Then He Kissed Me (Remastered 2015)
02. The Ronettes - Be My Baby (Remastered 2015)
03. Nina Simone - Love Me or Leave Me (Remastered 2013)
04. Etta James - I Just Want to Make Love to You (Remastered)
05. The Shirelles - Baby It's You (Remastered)
06. Aretha Franklin - Won't Be Long (Remastered 2015)
07. Darlene Love - My Heart Beat a Little Bit Faster (Remastered 2015)
08. The Supremes - Buttered Popcorn (Remastered 2016)
09. Ike & Tina Turner - I Idolize You (Remastered 2018)
10. Dinah Washington - Baby Won't You Please Come Home (Remastered)
11. The Shirelles - Will You Love Me Tomorrow (Remastered 2019)
12. The Crystals - Da Doo Ron Ron (Remastered 2015)
13. The Supremes - Your Heart Belongs to Me (Remastered 2016)
14. Aretha Franklin - It Ain't Necessarily So (Remastered 2015)
[...]

»[Zobacz cały opis

==Torrent==
Kategoria: Muzyka » Rhythm and blues/Gospel


Dodał: Beatrix
Data dodania:
2020-12-25 20:07:12
Rozmiar: 403.60 MB
Seedów: 134
Peerów: 85
Pobrano: 13 razy

Komentarze: 0


...( Info )...

Title: R&B All Night Singing
Artist: VA
Year: 2020
Genre: R&B

Length: 02:51:05
Format / Codec: MP3
Audio bitrate: 320 kbps

...( TrackList )...

01. 21 Savage, Summer Walker - Secret (3:30)
02. Ali Gatie - Running On My Mind (2:36)
03. Alina Baraz - Endlessly (5:00)
04. Alina Baraz - More Than Enough (2:31)
05. Alina Baraz, Khalid - Off the Grid (feat. Khalid) (3:20)
06. Chloe x Halle - Do It (2:56)
07. Chloe x Halle - Forgive Me (2:37)
08. Chris Brown, Young Thug - Go Crazy (2:57)
09. Dinah Jane - Lottery (3:31)
10. Doja Cat - Say So (3:57)
11. Dounia - Best Bad Influence (3:05)
12. dvsn, Snoh Aalegra - Between Us (feat. Snoh Aalegra) (3:03)
13. dvsn, Summer Walker - \'Flawless\' Do It Well Pt. 3 (feat. Summer Walker) (3:51)
14. Fabolous, Chris Brown, Teyana Taylor - Us vs. The World (5:49)
15. Fantasia, Tank, The Bonfyre - PTSD (feat. Tank & The Bonfyre) (3:55)
16. French Montana, Swae Lee, Chris Brown - Out Of Your Mind (3:14)
17. Giveon
[...]

»[Zobacz cały opis

==Torrent==
Kategoria: Muzyka » Rhythm and blues/Gospel


Dodał: Beatrix
Data dodania:
2020-12-25 12:28:02
Rozmiar: 915.28 MB
Seedów: 266
Peerów: 108
Pobrano: 5 razy

Komentarze: 0


...( Info )...

Prince And The Revolution
Purple Rain (1984)
FLAC LOSSLESS 24bit-96kHz
PBTHAL Vinyl Rip


allmusic.com...

Prince designed Purple Rain as the project that would make him a superstar, and, surprisingly, that is exactly what happened. Simultaneously more focused and ambitious than any of his previous records, Purple Rain finds Prince consolidating his funk and R&B roots while moving boldly into pop, rock, and heavy metal with nine superbly crafted songs. Even its best-known songs don't tread conventional territory: the bass-less "When Doves Cry" is an eerie, spare neo-psychedelic masterpiece; "Let's Go Crazy" is a furious blend of metallic guitars, Stonesy riffs, and a hard funk backbeat; the anthemic title track is a majestic ballad filled with brilliant guitar flourishes. Although Prince's songwriting is at a peak, the presence of the Revolution pulls the music into sharper focus, giving it a tougher, more aggressive edge. And, with the guidance of Wendy and L
[...]

»[Zobacz cały opis

==Torrent==
Kategoria: Muzyka » Rhythm and blues/Gospel


Dodał: Beatrix
Data dodania:
2020-12-25 12:24:15
Rozmiar: 840.58 MB
Seedów: 270
Peerów: 84
Pobrano: 5 razy

Komentarze: 0


...( Info )...

Kate Bush
The Kick Inside (1978)
FLAC LOSSLESS 24bit-96kHz
PBTHAL Vinyl Rip

...( TrackList )...

foobar2000 1.4.3 / Dynamic Range Meter 1.1.1
log date: 2020-12-23 13:22:27

--------------------------------------------------------------------------------
Analyzed: Kate Bush / The Kick Inside
--------------------------------------------------------------------------------

DR Peak RMS Duration Track
--------------------------------------------------------------------------------
DR12 -0.78 dB -15.78 dB 3:10 01-Moving
DR12 -0.70 dB -16.05 dB 3:44 02-The Saxophone Song
DR12 -2.24 dB -17.97 dB 2:56 03-Strange Phenomena
DR13 -1.09 dB -16.12 dB 2:59 04-Kite
DR9 -3.89 dB -16.41 dB 2:40 05-The Man With The Child In His Eyes
DR12 -1.50 dB -15.79 dB 4:29 06-Wuthering Heights
DR11 -2.79 dB -16.69 dB 3:35 07-James And The Cold Gun
DR12 -6.79 dB -21.70 dB 3:03 08-Feel It
DR12 -2.19 dB -18.00 dB 3:17 09-Oh To Be In Love
DR12 -2.04 dB -16.78 dB 2:27 10-L'Amo
[...]

»[Zobacz cały opis

==Torrent==
Kategoria: Muzyka » Rhythm and blues/Gospel


Dodał: Beatrix
Data dodania:
2020-12-19 09:05:11
Rozmiar: 154.24 MB
Seedów: 1114
Peerów: 109
Pobrano: 30 razy

Komentarze: 0


...( Info )...

Artist: Alicia Keys
Album: ALICIA (Deluxe)
Year: 2020
Genre: R'n'B
Quality: Mp3 320 kbps

...( TrackList )...

01. Truth Without Love
02. Time Machine
03. Authors Of Forever
04. Wasted Energy (feat. Diamond Platnumz & Kaash Paige)
05. Underdog
06. 3 Hour Drive (feat. Sampha)
07. Me x 7 (feat. Tierra Whack)
08. Show Me Love (feat. Miguel)
09. So Done (feat. Khalid)
10. Gramercy Park
11. Love Looks Better
12. You Save Me (feat. Snoh Aalegra)
13. Jill Scott (feat. Jill Scott)
14. Perfect Way To Die
15. Good Job
16. Three Hour Drive - A COLORS SHOW (feat. SiR)
17. Alicia Keys & Brandi Carlile - A Beautiful Noise
18. Wasted Energy (feat. Diamond Platnumz & Kaash Paige)

==Torrent==
Kategoria: Muzyka » Rhythm and blues/Gospel


Dodał: Beatrix
Data dodania:
2020-12-11 21:27:11
Rozmiar: 154.00 MB
Seedów: 606
Peerów: 55
Pobrano: 11 razy

Komentarze: 0


...( Info )...

Artist: T-Pain
Album: The Lost Remixes
Year: 2020
Genre: R&B
Quality: Mp3 320 kbps

...( TrackList )...

01. T-Pain Beatboxing (Live at the Roxy Theater, Los Angeles, CA -2008)
02. I'm N Luv (Wit A Stripper) 2 (feat. Pimp C, Too $hort, MJG, Twista & Paul Wall) (Tha Remix)
03. I'm N Luv (Wit A Stripper) (iSoul Clear Heels Remix)
04. I'm N Luv (Wit A Stripper) (South Rakkas Reggaton Mix - No Rap)
05. I'm Sprung (Live at the Roxy Theater, Los Angeles, CA -2008)
06. I'm Sprung 2 (feat. Beenie Man) (Tony Kelly Dancehall Remix)
07. I'm Sprung (feat. Swishahouse) (Chopped & Screwed Remix)
08. I'm Sprung (feat. YoungBloodZ & Trick Daddy) (Remix)
09. I'm Sprung 2 (feat. Anthony Acid) (Dance Remix)
10. Studio Luv (feat. Lil' Wayne) (Remix)
11. Who The F___ Is That (Live at the Roxy Theater, Los Angeles, CA -2008)
12. Buy U A Drank (Shawty Snappin') _ Bartender Medley (Live at the Roxy Theater, Los Angeles, CA -2008)
13. Buy U A Drank (Shawty Snappin') (feat.
[...]

»[Zobacz cały opis

==Torrent==
Kategoria: Muzyka » Rhythm and blues/Gospel


Dodał: Only2try
Data dodania:
2020-12-09 23:45:31
Rozmiar: 2.44 GB
Seedów: 83
Peerów: 34
Pobrano: 3 razy

Komentarze: 0


Performer = John Legend

Born = Springfield, Ohio, USA

Genre = R&B/Soul/Pop

Format = Opus ~128

---------------------------------------------------------------------------------------------------

2004 - Get Lifted
2006 - Once Again
2008 - Evolver (Deluxe Editions)
2008 - John Legend: Live From Philadelphia
2010 - Wake Up! (Deluxe Edition) [John Legend & The Roots]
2013 - Love In The Future (Deluxe Edition)
2016 - Darkness And Light (Deluxe Edition And Target Exclusive)
2018 - A Legendary Christmas (Deluxe Edition)
2018 - Greatest Songs
2018 - Jesus Christ Superstar: Live In Concert [OST]
2018 - John Legend: Deep Cuts
2020 - Bigger Love

Singles - Barbra Streisand - What kind of fool (ft John Legend), Benny Benassi - Dance the pain away
(2016 edit) (ft John Legend), Big Sean - Memories (Part II) (ft John Legend), Big Sean - One
man can change the world (ft Kanye West & John Legend), Buju Banton - Memories (ft John Legend)
,Calvin Harris - Holiday (ft Snoo
[...]

»[Zobacz cały opis

==Torrent==
Kategoria: Muzyka » Rhythm and blues/Gospel


Dodał: Beatrix
Data dodania:
2020-11-26 10:40:03
Rozmiar: 42.63 MB
Seedów: 96
Peerów: 56
Pobrano: 8 razy

Komentarze: 0


...( Info )...

Artist: Tinashe
Album: Comfort & Joy
Year: 2020
Genre: R&B
Quality: Mp3 320 kbps

...( TrackList )...

1. Comfort & Joy (intro)
2. God Rest Ye Merry Gentlemen
3. Angels we Have Heard on High
4. Last Christmas
5. The Christmas song
6. O Holy night
7. Have Yourself a Merry Little Christmas

==Torrent==
Kategoria: Muzyka » Rhythm and blues/Gospel


Dodał: Beatrix
Data dodania:
2020-11-26 09:50:37
Rozmiar: 57.06 MB
Seedów: 106
Peerów: 118
Pobrano: 15 razy

Komentarze: 0


...( Info )...

Artist: Bob Marley & The Wailers
Album: Bob Marley Legacy: Freedom Fighter
Year: 2020
Genre: R&B
Quality: Mp3 320 kbps

...( TrackList )...

1. War
2. Smile Jamaica (Single Version)
3. I Shot The Sheriff (Edited Version)
4. Buffalo Soldier
5. Roots
6. No More Trouble

==Torrent==
Kategoria: Muzyka » Rhythm and blues/Gospel


Dodał: Beatrix
Data dodania:
2020-11-21 18:57:45
Rozmiar: 100.49 MB
Seedów: 169
Peerów: 8
Pobrano: 4 razy

Komentarze: 0


...( Info )...

Artist: DaniLeigh
Album: MOVIE
Year: 2020
Genre: R&B
Quality: Mp3 320 kbps

...( TrackList )...

01. Superstar
02. Situations
03. My Terms (feat. PARTYNEXTDOOR)
04. Put U On
05. Bullshit
06. Mistreated (feat. Queen Naija)
07. Monique
08. Dominican Mami (feat. Fivio Foreign)
09. Levi High (feat. DaBaby)
10. Diamonds On Me (feat. Gunna, Yella Beezy)
11. Famous
12. Keeper
13. Above And Beyond
14. Baby Say
15. I Wish (feat. Ty Dolla $ign)
16. Last Night

==Torrent==
Kategoria: Muzyka » Rhythm and blues/Gospel


Dodał: Beatrix
Data dodania:
2020-11-19 10:34:17
Rozmiar: 80.15 MB
Seedów: 60
Peerów: 8
Pobrano: 12 razy

Komentarze: 0


...( Info )...

Artist: Kali Uchis
Album: Sin Miedo (del Amor y Otros Demonios) ∞
Year: 2020
Genre: R&B, Soul, Pop, Reggaeton, Latin
Quality: Mp3 320 kbps

...( TrackList )...

01. la luna enamorada
02. fue mejor
03. __aguardiente y limón %ᵕ‿‿ᵕ%
04. ¡aquí yo mando!
05. vaya con dios
06. que te pedí__
07. quiero sentirme bien
08. telepatía
09. de nadie
10. no eres tu(soy yo)
11. te pongo mal(prendelo)
12. la luz(Fín)
13. ángel sin cielo

==Torrent==
Kategoria: Muzyka » Rhythm and blues/Gospel


Dodał: Only2try
Data dodania:
2020-11-12 18:36:14
Rozmiar: 5.17 GB
Seedów: 64
Peerów: 78
Pobrano: 8 razy

Komentarze: 0


Performer = Alicia Keys

Born = New York City, New York, USA

Genre = R&B/Soul/Pop/Hip Hop

Format = Opus ~128

---------------------------------------------------------------------------------------------------

2001 - Songs In A Minor (Deluxe Editions)
2002 - Remixed & Unplugged In A Minor
2003 - The Diary Of Alicia Keys (UK And Japanese Edition)
2005 - Unplugged
2007 - As I Am (The Super Edition)
2008 - Remixed
2009 - The Element Of Freedom (Deluxe Editions)
2012 - Girl On Fire
2013 - VH1 Storytellers
2016 - Here (Deluxe Editions)
2016 - Unreleased [Low quality]
2017 - Vault Playlist, Vol. 1
2018 - Alicia Keys: Essentials
2019 - Alicia Keys: Deep Cuts
2020 - Alicia (Deluxe Editions)

Singles - 28 thousand days, A Woman's Worth (Original radio version), A Woman's Worth (Remix Club version),
A Woman's Worth (Remix Instrumental version), A Woman's Worth (Remix radio version), Back to life
,Blended Family (What You Do For Love) (ft A$AP Rocky), Butterflyz (
[...]

»[Zobacz cały opis

==Torrent==
Kategoria: Muzyka » Rhythm and blues/Gospel


Dodał: Beatrix
Data dodania:
2020-11-05 22:53:56
Rozmiar: 150.96 MB
Seedów: 738
Peerów: 47
Pobrano: 16 razy

Komentarze: 0


...( Info )...

Artist: Various
Album: NOW That's What I Call Music! R&B Christmas
Year: 2020
Genre: R&B
Quality: Mp3 320 kbps

...( TrackList )...

01. John Legend - Silver Bells
02. Whitney Houston, Georgia Mass Choir - Joy To The World
03. Earth, Wind & Fire - Happy Seasons
04. Donny Hathaway - This Christmas
05. The Temptations - Silent Night
06. The O'Jays - White Christmas
07. Babyface - The Christmas Song
08. Luther Vandross - Every Year, Every Christmas
09. Boyz II Men, Brian McKnight - Let It Snow
10. Stevie Wonder - Someday At Christmas
11. James Brown - Please Come Home For Christmas
12. Clarence Carter - Back Door Santa
13. Otis Redding - Merry Christmas Baby
14. Solomon Burke - Presents For Christmas
15. Marvin Gaye - I Want To Come Home For Christmas
16. Smokey Robinson & The Miracles - It's Christmas Time
17. The Supremes - My Favorite Things
18. Jackson 5 - I Saw Mommy Kissing Santa Claus

==Torrent==
Kategoria: Muzyka » Rhythm and blues/Gospel


Dodał: Beatrix
Data dodania:
2020-11-03 08:28:52
Rozmiar: 680.20 MB
Seedów: 0
Peerów: 0
Pobrano: 11 razy

Komentarze: 0


...( Info )...

Artist: Earth, Wind & Fire
Album: Gold
Year: 2020
Genre: R&B / Soul / Funk
Total Tracks: 45
Total Size: 680 MB
Quality: Mp3 320 kbps

...( TrackList )...

Disc: 1
1. Boogie Wonderland (4:49)
2. Let's Groove (5:33)
3. Shining Star (2:50)
4. That's The Way Of The World (5:47)
5. Sing A Song (3:25)
6. Can't Hide Love (4:11)
7. Getaway (3:46)
8. Gratitude (3:29)
9. Love's Holiday (4:23)
10. Reasons (5:01)
11. Runnin' (5:52)
12. Mom (5:51)
13. Evil (4:58)
14. Keep Your Head To The Sky (5:11)
15. Mighty Mighty (3:04)
16. Kalimba Story (4:02)
17. Devotion (4:49)

Disc: 2
1. September (3:35)
2. After The Love Has Gone (4:38)
3. Let Your Feelings Show (5:14)
4. Jupiter (3:11)
5. Magic Mind (3:40)
6. Star (4:25)
7. Can't Let Go (3:29)
8. Let Me Talk (4:09)
9. Side By Side (5:57)
10. Spread Your Love (3:52)
11. Magnetic (4:21)
12. Touch (4:54)
13. System Of Survival (4:59)
14. Thinking Of You (4:41)
15. Let's Groove (Holiday Version
[...]

»[Zobacz cały opis

==Torrent==
Kategoria: Muzyka » Rhythm and blues/Gospel


Dodał: Only2try
Data dodania:
2020-10-23 17:09:07
Rozmiar: 154.10 MB
Seedów: 94
Peerów: 20
Pobrano: 17 razy

Komentarze: 0


Performer = Various Artists

Year = 2009

Genre = R&B

Format = Opus ~128

---------------------------------------------------------------------------------------------------

R&B Lovesongs 2009 (CD 1)

Aaliyah - Back & forth
All-4-One - I swear
Chris Brown - With you
Christina Aguilera - Hurt
Joe - If I was your man
John Legend - Green light (ft André 3000)
Jordin Sparks - No air (ft Chris Brown)
Justin Timberlake - My love (ft T.I.)
Kandi - Don't think I'm not
Keith Sweat - I want her
Kelly Rowland - Stole
Lemar - If she knew
Luther Vandross - Never too much
Missy Elliott - The rain (Supa dupa fly)
Natty - Bedroom eyes
Puff Daddy - I'll be missing you (ft Faith Evans & 112)
TLC - Unpretty
Trey Songz - Gotta make it (ft Twista)
Usher - Love in this club (ft Young Jeezy)
Wiley - Cash in my pocket (ft Daniel Merriweather)


R&B Lovesongs 2009 (CD 2)

Alicia Keys - No one
Angie Stone - Wish I didn't miss you
Anita Baker - Sweet love
Anthony Hamilton
[...]

»[Zobacz cały opis

==Torrent==
Kategoria: Muzyka » Rhythm and blues/Gospel


Dodał: Beatrix
Data dodania:
2020-10-21 23:44:33
Rozmiar: 947.22 MB
Seedów: 444
Peerów: 120
Pobrano: 30 razy

Komentarze: 0


...( Info )...

Artist: VA | Title: 100 Greatest 00s R&B Hits
Country: Int. | Genre: Various
Year: 2020 | Length: 06:49:42
Audio bitrate: 320 kbps
Format / Codec: MP3

...( TrackList )...

001. Mario - Let Me Love You
002. Ja Rule - Always On Time
003. Nelly - Dilemma
004. Usher - U Remind Me
005. Chris Brown - With You
006. Destiny\'s Child - Say My Name
007. Fat Joe - What\'s Luv_ (feat. Ja-Rule & Ashanti)
008. Mary J. Blige - Family Affair
009. City High - What Would You Do_
010. Cassie - Me & U (US Version)
011. Blu Cantrell - Breathe
012. The Pussycat Dolls - Stickwitu
013. Nelly Furtado - Promiscuous
014. Eve - Let Me Blow Ya Mind
015. Lumidee - Never Leave You (Uh Oooh, Uh Oooh)
016. Akon - Smack That (Clean)
017. Beyoncé - Naughty Girl
018. Donell Jones - U Know What\'s Up
019. Cam\'ron - Hey Ma
020. Rihanna - Rude Boy
021. Christina Aguilera - Dirrty (feat. Redman)
022. Jason Derulo - Whatcha Say
023. Sisqó - Thong Song (Album Version Explicit)
[...]

»[Zobacz cały opis

==Torrent==
Kategoria: Muzyka » Rhythm and blues/Gospel


Dodał: Beatrix
Data dodania:
2020-10-19 22:21:02
Rozmiar: 950.49 MB
Seedów: 1834
Peerów: 737
Pobrano: 24 razy

Komentarze: 0


...( Info )...

Artist: Various
Album: 100 Greatest 00s R&B
Year: 2020
Genre: R&B
Total Tracks: 100
Total Size: 950 MB
Quality: Mp3 320 kbps

...( TrackList )...

001. Mario - Let Me Love You
002. Ja Rule - Always On Time
003. Nelly - Dilemma
004. Usher - U Remind Me
005. Chris Brown - With You
006. Destiny's Child - Say My Name
007. Fat Joe - What's Luv? (feat. Ja-Rule & Ashanti)
008. Mary J. Blige - Family Affair
009. City High - What Would You Do?
010. Cassie - Me & U
011. Blu Cantrell - Breathe
012. The Pussycat Dolls - Stickwitu
013. Nelly Furtado - Promiscuous
014. Eve - Let Me Blow Ya Mind
015. Lumidee - Never Leave You (Uh Oooh, Uh Oooh)
016. Akon - Smack That (Clean)
017. Beyoncé - Naughty Girl
018. Donell Jones - U Know What's Up
019. Cam'ron - Hey Ma
020. Rihanna - Rude Boy
021. Christina Aguilera - Dirrty (feat. Redman)
022. Jason Derulo - Whatcha Say
023. Sisqó - Thong Song (Album Version Explicit)
024. Jennifer Lopez - Get Right
025.
[...]

»[Zobacz cały opis

==Torrent==
Kategoria: Muzyka » Rhythm and blues/Gospel


Dodał: Beatrix
Data dodania:
2020-10-12 21:41:22
Rozmiar: 151.30 MB
Seedów: 384
Peerów: 103
Pobrano: 16 razy

Komentarze: 0


...( Info )...

Artist: Monica
Album: Essentials
Year: 2020
Genre: R&B
Quality: Mp3 320 kbps

...( TrackList )...

01. Trenches
02. Angel of Mine
03. Don't Take It Personal (Just One of Dem Days)
04. The Boy Is Mine
05. So Gone
06. The First Night
07. Before You Walk Out of My Life
08. For You I Will
09. Everything To Me
10. Just Right for Me
11. Why I Love You So Much
12. Knock Knock
13. Love All Over Me
14. U Should've Known Better
15. Commitment
16. Trust

==Torrent==
Kategoria: Muzyka » Rhythm and blues/Gospel


Dodał: Beatrix
Data dodania:
2020-10-12 21:07:17
Rozmiar: 270.49 MB
Seedów: 540
Peerów: 206
Pobrano: 24 razy

Komentarze: 0


...( Info )...

Artist: Earth, Wind & Fire
Album: Essentials
Year: 2020
Genre: R&B
Quality: Mp3 320 kbps

...( TrackList )...

01. September
02. Let's Groove
03. That's the Way of the World
04. Boogie Wonderland
05. Shining Star
06. Fantasy
07. After the Love Has Gone
08. Sing a Song
09. Got to Get You Into My Life
10. Reasons
11. Can't Hide Love
12. Getaway
13. In the Stone
14. Mighty Mighty
15. Serpentine Fire
16. Keep Your Head to the Sky
17. Devotion
18. Saturday Nite
19. I'll Write a Song for You
20. Kalimba Story
21. Be Ever Wonderful
22. Fall in Love with Me
23. Love's Holiday
24. Evil
25. Sun Goddess

==Torrent==
Kategoria: Muzyka » Rhythm and blues/Gospel


Dodał: Beatrix
Data dodania:
2020-10-10 22:38:57
Rozmiar: 1.05 GB
Seedów: 1350
Peerów: 547
Pobrano: 31 razy

Komentarze: 0


...( Info )...

Artist: Various
Album: 100 Greatest 90s R&B
Year: 2020
Genre: R&B
Total Tracks: 100
Total Size: 1.04 GB
Quality: Mp3 320 kbps

...( TrackList )...

001. Blackstreet, Dr. Dre, Queen Pen - No Diggity
002. Donell Jones - U Know What's Up
003. Usher - You Make Me Wanna
004. Montell Jordan - This Is How We Do It
005. Lauryn Hill - Doo Wop (That Thing)
006. Ginuwine - Pony
007. Destiny's Child - Say My Name
008. TLC - Creep
009. Mark Morrison - Return of the Mack
010. Bone Thugs-N-Harmony - Tha Crossroads
011. K-Ci & JoJo - All My Life
012. Boyz II Men - End Of The Road
013. Whitney Houston - My Love Is Your Love
014. Sisqó - Thong Song (Album Version Explicit)
015. Jennifer Lopez - If You Had My Love
016. Mariah Carey - Fantasy
017. Brandy - The Boy Is Mine (Radio Edit with Intro)
018. Shanice - I Love Your Smile
019. Toni Braxton - You're Makin' Me High
020. En Vogue - My Lovin' (You're Never Gonna Get It)
021. Jade - Don't Walk Away
022.
[...]

»[Zobacz cały opis

==Torrent==
Kategoria: Muzyka » Rhythm and blues/Gospel


Dodał: Beatrix
Data dodania:
2020-09-11 18:02:28
Rozmiar: 114.95 MB
Seedów: 470
Peerów: 102
Pobrano: 13 razy

Komentarze: 0


...( Info )...

Artist : Sam Cooke
Album : But Not for Me
Year: 2020
Genre: R&B / Soul & Funk
Quality: Mp3 320 kbps

...( TrackList )...

01. But Not for Me
02. Let's Go Steady Again
03. Love You Most of All
04. Movin' and Groovin'
05. Lonely Island
06. Hold On
07. (Don't Fight It) Feel It
08. (What A) Wonderful World
09. Comes Love
10. Don't Get Around Much Any More
11. I Belong to Your Heart
12. Win Your Love for Me
13. The Song Is Ended (But the Melody Lingers On)
14. Sad Mood
15. Lover Come Back to Me
16. Ain't Nobody's Business
17. A Whole Lotta Woman
18. Chain Gang
19. Love Me
20. Little Girl Blue

==Torrent==
Kategoria: Muzyka » Rhythm and blues/Gospel


Dodał: Beatrix
Data dodania:
2020-08-11 10:15:20
Rozmiar: 112.16 MB
Seedów: 700
Peerów: 54
Pobrano: 31 razy

Komentarze: 0


...( Info )...

Artist : The Platters
Album : Golden Records
Year: 2020
Genre: R&B
Quality: Mp3 320 kbps

...( TrackList )...

01. Smoke Gets In Your Eyes
02. My Prayer
03. The Great Pretender
04. Only You (And You Alone)
05. I'm Sorry
06. (You've Got) The Magic Touch
07. In the Still of the Night
08. Red Sails In the Sunset
09. One In a Million
10. Twilight Time
11. Harbour Lights
12. You'll Never Never Know
13. Enchanted
14. Heaven on Earth
15. On My Word of Honour
16. I'm Just a Dancing Partner
17. He's Mine
18. Remember When

==Torrent==
Kategoria: Muzyka » Rhythm and blues/Gospel


Dodał: Beatrix
Data dodania:
2020-08-07 10:15:07
Rozmiar: 66.63 MB
Seedów: 71
Peerów: 24
Pobrano: 6 razy

Komentarze: 0


...( Info )...

Artist : Victoria Monét

Album : JAGUAR

Genre : R&B

Release : 2020

Tracks : 09

Quality: Mp3, 320 kbps

Total Time: 00:25:31

Total Size: 67 Mb

...( TrackList )...

01. Victoria Monét - Moment
02. Victoria Monét - Big Boss (Interlude)
03. Victoria Monét - Dive
04. Victoria Monét - We Might Even Be Falling In Love (Interlude)
05. Victoria Monét - Jaguar
06. Victoria Monét - Experience
07. Victoria Monét - Ass Like That
08. Victoria Monét - Go There With You
09 Victoria Monét - Touch Me

==Torrent==
Kategoria: Muzyka » Rhythm and blues/Gospel


Dodał: Beatrix
Data dodania:
2020-08-01 10:54:01
Rozmiar: 161.60 MB
Seedów: 770
Peerów: 90
Pobrano: 30 razy

Komentarze: 0


...( Info )...

Artist : Beyoncé

Album : The Lion King: The Gift [Deluxe Edition]

Genre : RnB

Release : 2020

Tracks : 17

Quality: Mp3, 320 kbps

Total Time: 1:01:38

Total Size: 161 Mb

...( TrackList )...

01. BIGGER (3:46)
02. FIND YOUR WAY BACK (2:42)
03. DON'T JEALOUS ME (2:36)
04. JA ARA E (3:10)
05. NILE (1:47)
06. MOOD 4 EVA (feat. Oumou Sangare) (4:32)
07. WATER (2:33)
08. BROWN SKIN GIRL (4:08)
09. KEYS TO THE KINGDOM (3:19)
10. ALREADY (3:43)
11. OTHERSIDE (3:40)
12. MY POWER (4:20)
13. SCAR (3:07)
14. SPIRIT (From Disney's _The Lion King_) (4:37)
15. BLACK PARADE (Extended Version) (5:17)
16. FIND YOUR WAY BACK (MELO-X Remix) (3:36)
17. BLACK PARADE (4:41)

==Torrent==
Kategoria: Muzyka » Rhythm and blues/Gospel


Dodał: Beatrix
Data dodania:
2020-07-19 09:43:17
Rozmiar: 555.04 MB
Seedów: 716
Peerów: 551
Pobrano: 25 razy

Komentarze: 0


...( Info )...

Artist: Various
Album: Greatest Ever Ska & Mod
Year: 2020
Genre: Ska/Mod, R&B, Jazz
Total Tracks: 80
Total Size: 555 MB
Quality: Mp3 320 kbps

...( TrackList )...

Disc: 1
01. Toots & The Maytals - 54-46 Was My Number
02. The Ethiopians - Train to Skaville
03. The Skatalites - Street Corner
04. Desmond Dekker - You Can Get It If You Really Want
05. The Upsetters - Return of Django
06. Freddie Notes, The Rudies - Guns of Navarone
07. Dandy - Let's Do Rock Steady
08. Laurel Aitken - Last Night
09. The Pioneers - Long Shot Kick De Bucket
10. Symarip - Skinhead Moonstomp
11. Wilson Pickett - In the Midnight Hour
12. The Melodians - Sweet Sensation
13. Jimmy James & The Vagabonds - Red Red Wine
14. John Holt, U-Roy - Wear You to the Ball
15. Joya Landis, Tommy McCook, The Supersonics - Angel of the Morning
16. The Paragons - The Tide Is High
17. Danny Ray - Can't Get Used to Losing You
18. Dandy Livingstone - Rudy, A Message To You
19. Desmon
[...]

»[Zobacz cały opis

==Torrent==
Kategoria: Muzyka » Rhythm and blues/Gospel


Dodał: Beatrix
Data dodania:
2020-07-01 10:32:21
Rozmiar: 393.77 MB
Seedów: 362
Peerów: 16
Pobrano: 17 razy

Komentarze: 0


...( TrackList )...

01. Adina Howard - Freak Like Me
02. Silk - Lose Control
03. 112 - Only You (Slow Remix)
04. Faith Evans - Love Like This
05. Tamia - Careless Whisper
06. All-4-One - I Swear
07. Iyaz - Replay
08. Pretty Ricky - Grind With Me
09. The Notorious B.I.G. - Hypnotize (2005 Remaster)
10. Cassie - Me & U
11. Silk - Freak Me
12. Sunshine Anderson - Heard It All Before
13. Jade - Don't Walk Away
14. Eternal - Just a Step from Heaven (Radio Mix)
15. Tevin Campbell - I'm Ready
16. Keith Sweat - Twisted
17. Anita Baker - Sweet Love
18. Flo Rida - Low (feat. T-Pain)
19. All Saints - Black Coffee
20. Mark Morrison - Return of the Mack
21. LSG - My Body
22. McLean - Broken (Radio Version)
23. Cassie - Long Way 2 Go
24. Mase - Feel so Good
25. CeeLo Green - Forget You
26. Trey Songz - Can't Help but Wait
27. KP & Envyi - Swing My Way (Radio Version)
28. Dawn Penn - You Don't Love Me (No, No, No)
29. Karyn White - The Way You Love Me
30. Color Me Badd
[...]

»[Zobacz cały opis

==Torrent==
Kategoria: Muzyka » Rhythm and blues/Gospel


Dodał: Beatrix
Data dodania:
2020-06-20 12:51:04
Rozmiar: 43.21 MB
Seedów: 99
Peerów: 3
Pobrano: 9 razy

Komentarze: 0


...( Info )...

Artist : Awa
Album : cry.baby
Year: 2020
Genre: R&B
Quality: Mp3 320 kbps

...( TrackList )...

01 - F__kin' Love Songs
02 - Use You
03 - Comfortable
04 - Too Late for That
05 - Like I Do
06 - Piano Song

==Torrent==
Kategoria: Muzyka » Rhythm and blues/Gospel


Dodał: Beatrix
Data dodania:
2020-06-18 21:13:33
Rozmiar: 80.53 MB
Seedów: 12
Peerów: 0
Pobrano: 26 razy

Komentarze: 0


...( TrackList )...

01- I Like It (Feat. Pitbull)
02- One Day At A Time (Feat. Akon)
03- Heartbeat
04- Dirty Dancer (Feat. Usher)
05- Why Not Me?
06- No Me Digas Que No (Feat. Wisin & Yandel)
07- Ayer
08- Cuando Me Enamoro (Feat. Juan Luis Guerra)
09- Dile Que
10- Tu Y Yo
11- Heartbreaker (Feat. Nicole Scherzinger)
12- Coming Home
13- Everything's Gonna Be Alright
14- No Me Digas Que No (Solo)

...( Info )...


Overall bit rate mode : Variable
Overall bit rate : 227 kb/s
Album : Euphoria
Track name/Total : 14
Performer : Enrique Iglesias
Publisher : Universal
Genre : R&B
Recorded date : 2010-00-00

==Torrent==
Kategoria: Muzyka » Rhythm and blues/Gospel


Dodał: Beatrix
Data dodania:
2020-06-18 09:45:55
Rozmiar: 64.43 MB
Seedów: 121
Peerów: 3
Pobrano: 7 razy

Komentarze: 0


...( Info )...

Artist : Eric Bellinger
Album : Hors D'oeuvres (Explicit)
Year: 2020
Genre: R&B
Quality: Mp3 320 kbps

...( TrackList )...

1. Dream
2. Whatever
3. No Co-Sign
4. Eazy Shuffle
5. Double Standard
6. Switch Up
7. Mamba Mentality
8. Manifestation
9. Lifestyle

==Torrent==
Kategoria: Muzyka » Rhythm and blues/Gospel


Dodał: Only2try
Data dodania:
2020-06-16 17:58:58
Rozmiar: 503.80 MB
Seedów: 38
Peerów: 26
Pobrano: 6 razy

Komentarze: 0


Artist = JoJo

Born = Brattleboro, Vermont, USA

Genre = R&B/Pop/Hip Hop/Soul

Format = Opus ~128 CBR & mp3 ~320

------------------------------------------------------------------------

What is Opus?
https://opus-codec.org/

24 bit/192 kHz Music downloads are very silly indeed:
https://people.xiph.org/~xiphmont/demo/neil-young.html

Software used for audio conversion, which the source audio can come from these formats = FLAC, ALAC, APE, CD.
soundKonverter -> https://www.linux-apps.com/p/1126634/

Why is not the Bitrate set to 320 kbps?
http://wiki.hydrogenaud.io/index.php?title=Opus#Music_encoding_quality
https://extraimage.net/images/2020/01/01/2ecb8e06877d9763aa3050dbdf12918d.png

Why are audio files set to 48kHz instead of 44.1kHz?
https://wiki.xiph.org/OpusFAQ#How_do_I_use_44.1_kHz_or_some_other_sampling_rate_not_directly_supported_by_Opus.3F

How to remove/add a wide variety of information into the audio/video tags:
Picard -> https://picard.musicbrainz
[...]

»[Zobacz cały opis

==Torrent==
Kategoria: Muzyka » Rhythm and blues/Gospel


Dodał: Beatrix
Data dodania:
2020-06-11 19:36:49
Rozmiar: 285.21 MB
Seedów: 6
Peerów: 3
Pobrano: 12 razy

Komentarze: 0


...( Info )...

Quality-Lossless
Release-2020
Duration-00:25:13
File Size-299 MB
Genre-R&B
Cover Size-1400px

----------------------------------------------------------------------------------------------
Analyzed: Love & Trust / Artist: Hunter Rose
----------------------------------------------------------------------------------------------
DR Peak RMS Duration Title [codec]
----------------------------------------------------------------------------------------------

...( TrackList )...
DR6 -0.30 dB -8.85 dB 2:54 01 - Let Me Go [flac]
DR5 -0.20 dB -7.27 dB 4:04 02 - GROWN [flac]
DR4 -0.20 dB -6.68 dB 3:28 03 - I Just Might [flac]
DR6 -0.20 dB -7.99 dB 3:04 04 - By Your Side [flac]
DR5 -0.20 dB -7.73 dB 2:43 05 - Love & Trust [flac]
DR6 -0.20 dB -9.18 dB 3:12 06 - Any Less [flac]
DR7 -0.20 dB -9.79 dB 2:46 07 - Lose Control [flac]
DR7 -0.20 dB -9.92 dB 2:58 08 - Goodbye... (Outro) [flac]
-----------------------------------------------------------------------
[...]

»[Zobacz cały opis

==Torrent==
Kategoria: Muzyka » Rhythm and blues/Gospel


Dodał: Beatrix
Data dodania:
2020-06-08 09:17:56
Rozmiar: 970.74 MB
Seedów: 900
Peerów: 118
Pobrano: 23 razy

Komentarze: 0


...( Info )...

Artist: Various
Album: 100 Greatest R&B Classics
Year: 2020
Genre: R&B
Total Tracks: 100
Total Size: 970 MB
Quality: Mp3 320 kbps

...( TrackList )...

01. Blu Cantrell - Breathe (Rap Version)
02. Pras - Ghetto Supastar (That is What You Are)
03. Destiny's Child - Say My Name
04. Usher - Yeah!
05. Ginuwine - Pony
06. Blackstreet - No Diggity
07. Mario - Let Me Love You
08. Mark Morrison - Return of the Mack
09. Kanye West - Gold Digger
10. City High - What Would You Do?
11. TLC - No Scrubs
12. Estelle - American Boy
13. Mary J. Blige - Family Affair
14. Whitney Houston - It's Not Right But It's Okay
15. Nelly Furtado - Promiscuous
16. Ne-Yo - So Sick
17. Ja Rule - Always On Time
18. Nelly - Dilemma
19. Donell Jones - U Know What's Up
20. Justin Timberlake - SexyBack
21. Destiny's Child - Bootylicious
22. Cassie - Me & U (US Version)
23. Warren G - Regulate
24. Fat Joe - What's Luv_ (feat. Ja-Rule & Ashanti)
25. Fugees - Ready or Not
[...]

»[Zobacz cały opis

==Torrent==
Kategoria: Muzyka » Rhythm and blues/Gospel


Dodał: Beatrix
Data dodania:
2020-06-06 10:02:53
Rozmiar: 88.46 MB
Seedów: 455
Peerów: 93
Pobrano: 4 razy

Komentarze: 0


...( Info )...

Genre: R&B
Year: 2020
Format: 320] kbps
Size: 88.4 Mb

...( TrackList )...

[03:30] 01. Closure
[03:14] 02. Peace
[03:04] 03. Friend Zone
[03:37] 04. All Night feat. DJ Luke Nasty
[02:14] 05. Crash
[02:30] 06. Irish Car Bomb
[02:47] 07. Prada U
[03:04] 08. Picky feat. Rotimi
[05:03] 09. Where’s the Lie feat. Tank
[03:06] 10. Nasty
[02:28] 11. Halfway
[03:46] 12. Such Is Life

==Torrent==
Kategoria: Muzyka » Rhythm and blues/Gospel


Dodał: Beatrix
Data dodania:
2020-05-26 11:20:32
Rozmiar: 930.05 MB
Seedów: 540
Peerów: 33
Pobrano: 51 razy

Komentarze: 0


...( Info )...

Artist: Various
Album: Now 100 Hits 70s
Year: 2020
Genre: Pop, Rock, RnB
Total Tracks: 100
Total Size: 930 MB
Quality: Mp3 320 kbps

...( TrackList )...

001. Queen - Killer Queen
002. The Buggles - Video Killed The Radio Star
003. Blondie - Heart Of Glass
004. Earth, Wind & Fire - Boogie Wonderland
005. The Four Seasons - December, 1963 (Oh What a Night!)
006. Gladys Knight & The Pips - Midnight Train to Georgia
007. Bill Withers - Ain't No Sunshine
008. Ike & Tina Turner - Proud Mary
009. Curtis Mayfield - Move on Up
010. Sister Sledge - We Are Family
011. The O'Jays - Love Train
012. The Specials - A Message to You Rudy
013. Electric Light Orchestra - Livin' Thing
014. Billy Joel - Piano Man (Radio Edit)
015. John Denver - Annie's Song
016. Steve Harley - Make Me Smile (Come up and See Me)
017. Marvin Gaye - What's Going On
018. Barry White - You're The First, The Last, My Everything
019. Freda Payne - Band Of Gold
020. 10cc - I'm Not
[...]

»[Zobacz cały opis

==Torrent==
Kategoria: Muzyka » Rhythm and blues/Gospel


Dodał: Only2try
Data dodania:
2020-05-16 11:12:45
Rozmiar: 381.73 MB
Seedów: 144
Peerów: 52
Pobrano: 20 razy

Komentarze: 0


Performer = Various Artists

Year = 2008

Genre = Various

Format = Opus ~128

------------------------------------------------------------------------------------

What is Opus?
https://opus-codec.org/

24 bit/192 kHz Music downloads are very silly indeed:
https://people.xiph.org/~xiphmont/demo/neil-young.html

Software used for audio conversion, which the source audio can come from these formats = FLAC, ALAC, APE, CD.
soundKonverter -> https://www.linux-apps.com/p/1126634/

Why is not the Bitrate set to 320 kbps?
http://wiki.hydrogenaud.io/index.php?title=Opus#Music_encoding_quality
https://extraimage.net/images/2020/01/01/2ecb8e06877d9763aa3050dbdf12918d.png

Why are audio files set to 48kHz instead of 44.1kHz?
https://wiki.xiph.org/OpusFAQ#How_do_I_use_44.1_kHz_or_some_other_sampling_rate_not_directly_supported_by_Opus.3F

How to remove/add a wide variety of information into the audio/video tags:
Picard -> https://picard.musicbrainz.org/

How to check i
[...]

»[Zobacz cały opis

==Torrent==
Kategoria: Muzyka » Rhythm and blues/Gospel


Dodał: Beatrix
Data dodania:
2020-04-05 00:26:11
Rozmiar: 144.16 MB
Seedów: 33
Peerów: 10
Pobrano: 15 razy

Komentarze: 0


...( Info )...

Artist: Earl King
Title: Earl's Pearls / The Very Best Of Earl King
Year Of Release: 1997
Label: Westside
Genre: Rock'n'Roll, Rhythm & Blues
Quality: MP3 320kbps stereo
Total Time: 61:27
Total Size: 144.15 MB

This top-notch collection brings together 25 tracks from King's 1955-1960 tenure with Ace Records in Jackson, Mississippi. Classic '50s New Orleans music doesn't come much finer than this, and Earl's contributions to the genre are plentiful on this disc, starting with his big hit, the original "Those Lonely, Lonely Nights." A real treat is hearing Huey "Piano" Smith soloing with complete abandon on tracks like "Nobody Cares," "Little Girl," "I'll Take You Back Home" and "Baby You Can Get Your Gun." Earl's guitar playing is equally fine and his Guitar Slim-derived style is well to the fore on "My Love Is Strong" and "I'm Packing Up." Although King's discography encompasses many labels and sessions, this is a great place to start absorbing this Crescent C
[...]

»[Zobacz cały opis

==Torrent==
Kategoria: Muzyka » Rhythm and blues/Gospel


Dodał: Beatrix
Data dodania:
2020-04-05 00:18:32
Rozmiar: 202.28 MB
Seedów: 148
Peerów: 9
Pobrano: 2 razy

Komentarze: 0


...( Info )...

Artist: Earl King
Title: Earl's Pearls / The Very Best Of Earl King
Year Of Release: 1997
Label: Westside
Genre: Rock'n'Roll, Rhythm & Blues
Quality: Flac (tracks, scans)
Total Time: 61:27
Total Size: 202.27 MB

This top-notch collection brings together 25 tracks from King's 1955-1960 tenure with Ace Records in Jackson, Mississippi. Classic '50s New Orleans music doesn't come much finer than this, and Earl's contributions to the genre are plentiful on this disc, starting with his big hit, the original "Those Lonely, Lonely Nights." A real treat is hearing Huey "Piano" Smith soloing with complete abandon on tracks like "Nobody Cares," "Little Girl," "I'll Take You Back Home" and "Baby You Can Get Your Gun." Earl's guitar playing is equally fine and his Guitar Slim-derived style is well to the fore on "My Love Is Strong" and "I'm Packing Up." Although King's discography encompasses many labels and sessions, this is a great place to start absorbing this Crescent
[...]

»[Zobacz cały opis

==Torrent==
Kategoria: Muzyka » Rhythm and blues/Gospel


Dodał: Beatrix
Data dodania:
2020-04-04 23:54:22
Rozmiar: 464.00 MB
Seedów: 612
Peerów: 121
Pobrano: 17 razy

Komentarze: 0


...( Info )...

Bill Withers
Lovely Day
The Very Best Of Bill Withers (2005)

Bill Withers died of heart complications
Monday March 30, 2020 at the age of 81.
R.I.P.

FLAC LOSSLESS 16bit-44kHz
Dynamic Range 10

Columbia Records
520146 2

...( TrackList )...

01.-Lovely Day
02.-Use Me
03.-Just The Two Of Us (With Grover Washington Jr.)
04.-Lean On Me
05.-Ain't No Sunshine
06.-I Don't Know
07.-Who Is He (And What Is He To You)?
08.-Harlem
09.-Kissing My Love
10.-Hello Like Before
11.-Let Me Be The One You Need
12.-Watching You, Watching Me
13.-In The Name Of Love (With Ralph MacDonald)
14.-Tender Things
15.-Lonely Town, Lonely Street
16.-I Don't Want You On My Mind
17.-Grandma's Hands
18.-I Want To Spend The Night
19.-Lovely Night For Dancing
20.-I Wish You Well

Przeglądaj
1 - 50 | 51 - 100 | 101 - 150 | 151 - 155
<< Poprzednia      Następna >>
NAJCZĘŚCIEJ POBIERANE