Kategorie
Ranking
RSS
Programy

Statystyki
Użytkowników:
Zarejestrowanych wczoraj:
Zarejestrowanych dzisiaj:
Torrentów:
Dodanych wczoraj:
Dodanych dzisiaj:
Warezów:
Dodanych wczoraj:
Dodanych dzisiaj:
125,369
41
47
126,728
76
99
9,107
28
14
Ostatnie 30
Popularne
w Sierpniu
Przeglądaj
<< Poprzednia      Następna >>
1 - 50 | 51 - 100 | 101 - 150 | ... | 701 - 750 | 751 - 800 | 801 - 837
Gatunki
Show/Hide [Pokaż/Ukryj]
Po kliknięciu ”Pokaż/Ukryj” możesz wyszukać pozycję z wybranymi gatunkami
(Pamiętaj że np. filmy mogą mieć więcej niż jeden gatunek)

Wybrane gatunki z kategorii: TV/Seriale

Dokumentalny (907),
==Torrent==
Kategoria: TV/Seriale » Dokumentalny


Dodał: edgarr
Data dodania:
2020-08-08 19:46:17
Rozmiar: 2.85 GB
Seedów: 62
Peerów: 95
Pobrano: 19 razy

Komentarze: 0


...( Info )...

> TYTUŁ ORYGINALNY: Polska z góry [Serial polski]
> PRODUKCJA: Polska
> GATUNEK: Dokumentalny, EAP
> ROK PRODUKCJI: 2017
> PREMIERA: 21 sierpnia 2017
> ILOŚĆ SEZONÓW: 4
> ILOŚĆ ODCINKÓW: 12 + 1 odcinek specjalny (Sezon 1)
> CZAS ODCINKA: 23-24 min.

> REŻYSERIA: Rymwid Błaszczak
> SCENARIUSZ: Radosław Orzeł, Kasha Bittner, Aneta Wróbel, Agnieszka Bomba
> OPERATORZY DRONÓW: Paweł Sudoł, Zbigniew Ciuliński, Mikołaj Gacka
> MONTAŻ: Jacek Jonas, Tomasz Skarbecki





...( O filmie )...

> OCENA: Filmweb: 8,2/10

https://pl.wikipedia.org/wiki/Polska_z_g%C3%B3ry
http://www.filmpolski.pl/fp/index.php?film=1244143
https://www.filmweb.pl/serial/Polska+z+g%C3%B3ry-2017-800057




...( Opis )...

> Polska z góry – serial dokumentalny o tematyce krajoznawczo-historycznej. Ujęcia kręcone są za pomocą drona, na wysokości od kilkunastu do 500 metrów. W każdym sezonie widzowie wybierają miejscowość, która zostanie zekranizowana w odcinku dodatkowym.
I
[...]

»[Zobacz cały opis

==Torrent==
Kategoria: TV/Seriale » Dokumentalny


Dodał: edgarr
Data dodania:
2020-08-08 19:44:38
Rozmiar: 3.54 GB
Seedów: 46
Peerów: 159
Pobrano: 20 razy

Komentarze: 0


...( Info )...

> TYTUŁ ORYGINALNY: Polska z góry [Serial polski]
> PRODUKCJA: Polska
> GATUNEK: Dokumentalny, EAP
> ROK PRODUKCJI: 2017
> PREMIERA: 21 sierpnia 2017
> ILOŚĆ SEZONÓW: 4
> ILOŚĆ ODCINKÓW: 12 + 1 odcinek specjalny (Sezon 1)
> CZAS ODCINKA: 23-24 min.

> REŻYSERIA: Rymwid Błaszczak
> SCENARIUSZ: Radosław Orzeł, Kasha Bittner, Aneta Wróbel, Agnieszka Bomba
> OPERATORZY DRONÓW: Paweł Sudoł, Zbigniew Ciuliński, Mikołaj Gacka
> MONTAŻ: Jacek Jonas, Tomasz Skarbecki





...( O filmie )...

> OCENA: Filmweb: 8,2/10

https://pl.wikipedia.org/wiki/Polska_z_g%C3%B3ry
http://www.filmpolski.pl/fp/index.php?film=1244143
https://www.filmweb.pl/serial/Polska+z+g%C3%B3ry-2017-800057




...( Opis )...

> Polska z góry – serial dokumentalny o tematyce krajoznawczo-historycznej. Ujęcia kręcone są za pomocą drona, na wysokości od kilkunastu do 500 metrów. W każdym sezonie widzowie wybierają miejscowość, która zostanie zekranizowana w odcinku dodatkowym.
I
[...]

»[Zobacz cały opis

==Torrent==
Kategoria: TV/Seriale » Dokumentalny


Dodał: feniks
Data dodania:
2020-08-08 18:33:42
Rozmiar: 2.07 GB
Seedów: 0
Peerów: 0
Pobrano: 21 razy

Komentarze: 0


...( Info )...

Produkcja: Polska
Gatunek: Dokumentalny
Premiera: 25 lutego 2019
Kanał Discovery Channel

https://www.youtube.com/watch?v=iTW7dNBhjA8


...( Opis )...


CIĘŻARÓWKĄ PRZEZ STANY
Ten program to przewodnik po najciekawszych zakątkach Stanów Zjednoczonych, a za razem możliwość poznania pracy kierowcy ciężarówki od kuchni. Przemierzymy Amerykę Północną wzdłuż i wszerz.
Głównym bohaterem i przewodnikiem po USA będzie Dawid Andres - pochodzący z Polski kierowca, który na co dzień pracuje w firmie transportowej.
Dawid nie boi się wyzwań - to, oprócz jego brata, jedyna osoba na świecie, która pokonała Amazonkę na rowerze wodnym! Odwaga u truckera to bardzo przydatna cecha. W ostatnich rankingach właśnie ta profesja uplasowała się na ósmym miejscu wśród najbardziej niebezpiecznych zawodów w USA. Życie zawodowego kierowcy osiemnastokołowego pojazdu to nie bajka - Dawid Andres wie o tym doskonale, a mimo to nadal z wielką pasją przemierza tysiące kilometrów amerykańs
[...]

»[Zobacz cały opis

==Torrent==
Kategoria: TV/Seriale » Dokumentalny


Dodał: Jordan-83
Data dodania:
2020-08-08 13:49:03
Rozmiar: 30.13 GB
Seedów: 13
Peerów: 40
Pobrano: 31 razy

Komentarze: 0


...( Info )...

Produkcja: USA, UK
Gatunek: Dokumentalny
Platforma: Amazon
Premiera: 3 styczeń 2020

...( Opis )...

James May wyrusza w niezwykłą podróż po Japonii, zaczynając od jej lodowatej północy, a na ciepłym południu kończąc. Zalicza atrakcje turystyczne, poznaje miejscowych i zjada makaron, a wszystko po to, by naprawdę zrozumieć Krainę Wschodzącego Słońca.

...( Dane Techniczne )...

Video
ID : 1
Format : AVC
Format/Info : Advanced Video Codec
Format profile : High@L4.1
Format settings : CABAC / 4 Ref Frames
Format settings, CABAC : Yes
Format settings, Reference frames : 4 frames
Codec ID : V_MPEG4/ISO/AVC
Duration : 48 min 58 s
Bit rate : 14.9 Mb/s
Width : 1 920 pixels
Height : 1 080 pixels
Display aspect ratio : 16:9
Frame rate mode : Constant
Frame rate : 25.000 FPS
Color space : YUV
Chroma subsampling : 4:2:0
Bit depth : 8 bits
Scan type : Progressive
Bits/(Pixel*Frame) : 0.288
Stream size : 5.11 GiB (96%)
Writing library : x264 core 15
[...]

»[Zobacz cały opis

==Torrent==
Kategoria: TV/Seriale » Dokumentalny


Dodał: edgarr
Data dodania:
2020-08-07 11:09:18
Rozmiar: 2.95 GB
Seedów: 3
Peerów: 104
Pobrano: 59 razy

Komentarze: 0


...( Info )...

> TYTUŁ ORYGINALNY: Polska z góry [Serial polski]
> PRODUKCJA: Polska
> GATUNEK: Dokumentalny, EAP
> ROK PRODUKCJI: 2017
> PREMIERA: 21 sierpnia 2017
> ILOŚĆ SEZONÓW: 4
> ILOŚĆ ODCINKÓW: 12 + 1 odcinek specjalny (Sezon 1)
> CZAS ODCINKA: 23-24 min.

> REŻYSERIA: Rymwid Błaszczak
> SCENARIUSZ: Radosław Orzeł, Kasha Bittner, Aneta Wróbel, Agnieszka Bomba
> OPERATORZY DRONÓW: Paweł Sudoł, Zbigniew Ciuliński, Mikołaj Gacka
> MONTAŻ: Jacek Jonas, Tomasz Skarbecki





...( O filmie )...

> OCENA: Filmweb: 8,2/10

https://pl.wikipedia.org/wiki/Polska_z_g%C3%B3ry
http://www.filmpolski.pl/fp/index.php?film=1244143
https://www.filmweb.pl/serial/Polska+z+g%C3%B3ry-2017-800057



...( Opis )...

> Polska z góry – serial dokumentalny o tematyce krajoznawczo-historycznej. Ujęcia kręcone są za pomocą drona, na wysokości od kilkunastu do 500 metrów. W każdym sezonie widzowie wybierają miejscowość, która zostanie zekranizowana w odcinku dodatkowym.
Ins
[...]

»[Zobacz cały opis

==Torrent==
Kategoria: TV/Seriale » Dokumentalny


Dodał: Jordan-83
Data dodania:
2020-08-06 16:24:12
Rozmiar: 6.68 GB
Seedów: 15
Peerów: 41
Pobrano: 52 razy

Komentarze: 4


...( Info )...

Produkcja: USA
Gatunek: Dokumentalny
Platforma: Netflix
Premiera: 6 sierpień 2020

...( Opis )...

Opowiadany przez Kevina Spaceya, „Race for the White House” to ekscytujący serial dokumentalny, który przedstawia dramat wyborów prezydenckich o wysoką stawkę. Korzystając z rzadkich materiałów archiwalnych i wywiadów, każdy odcinek przedstawia różne kultowe kampanie prezydenckie, w tym Abrahama Lincolna, Johna F Kennedy'ego i Billa Clintona.

...( Dane Techniczne )...

Video
ID : 1
Format : AVC
Format/Info : Advanced Video Codec
Format profile : Main@L3.1
Format settings : CABAC / 3 Ref Frames
Format settings, CABAC : Yes
Format settings, Reference frames : 3 frames
Codec ID : V_MPEG4/ISO/AVC
Duration : 41 min 51 s
Bit rate mode : Variable
Bit rate : 4 420 kb/s
Maximum bit rate : 6 630 kb/s
Width : 1 280 pixels
Height : 720 pixels
Display aspect ratio : 16:9
Frame rate mode : Constant
Frame rate : 29.970 (30000/1001) FPS
Color space : YUV
C
[...]

»[Zobacz cały opis

==Torrent==
Kategoria: TV/Seriale » Dokumentalny


Dodał: Jordan-83
Data dodania:
2020-08-06 13:41:33
Rozmiar: 3.45 GB
Seedów: 0
Peerów: 0
Pobrano: 68 razy

Komentarze: 1


...( Info )...

Produkcja: USA
Gatunek: Dokumentalny, Kryminał
Platforma: Netflix
Premiera: 20 marca 2020

...( Opis )...

W podziemnym świecie hodowców wielkich kotów można spotkać przeróżne osobowości. Jednak najbardziej ekscentryczny ze wszystkich ekscentryków jest bez wątpienia Joe Exotic — barwny poligamista z giwerą i piosenkarz country, a także szef zoo w Oklahomie. Charyzmatycznego Joego i innych zadziwiających bohaterów tego dokumentu, wśród których znaleźli się narkomani, oszuści i przywódcy sekt, łączy pasja do wielkich kotów. Podoba im się status społeczny i zainteresowanie, jakim cieszą się dzięki swojej niebezpiecznej menażerii. Jednak gdy Carole Baskin, walcząca o prawa zwierząt właścicielka schroniska dla wielkich kotów, grozi, że położy kres ich hobby, sprawy przybierają mroczny obrót. Narastający konflikt doprowadza do aresztowania Joego w związku z zabójstwem na zlecenie i ujawnia skomplikowaną historię, w której bardziej niebezpieczny od wielkiego kota jest
[...]

»[Zobacz cały opis

==Torrent==
Kategoria: TV/Seriale » Dokumentalny


Dodał: Hytry1
Data dodania:
2020-08-06 10:37:04
Rozmiar: 827.46 MB
Seedów: 196
Peerów: 106
Pobrano: 64 razy

Komentarze: 0


..::(Info)::..

*Gatunek filmu: Dokumentalny
*Kraj produkcji:
*Data premiery: 2020
*Czas trwania filmu: 45 min
*Reżyseria:

..::(Opis)::..

Portret polityka, który wykreował swój wizerunek na rosyjskiego Jamesa Bonda, a którego rządy mają w sobie coś thrillera szpiegowskiego. Władimir Putin rządzi w Rosji żelazną ręką już od 20 lat.

..::(Dane Techniczne)::..

Format : AVI at 2.384 kb/s
Length : 784 MiB for 45 min 59s 560 ms

Video #0 : MPEG-4 Visual at 2.181 kb/s
Aspect : 854 x 480 (1.779) at 25.000 fps

Audio #0 : AC-3 at 192 kb/s
Infos : 2 kanały, 44,1 kHz

==Torrent==
Kategoria: TV/Seriale » Dokumentalny


Dodał: Jordan-83
Data dodania:
2020-08-06 07:36:56
Rozmiar: 2.67 GB
Seedów: 0
Peerów: 0
Pobrano: 68 razy

Komentarze: 0


...( Info )...

Produkcja: USA
Gatunek: Dokumentalny
Platforma: HBO
Premiera: 5 sierpień 2020

...( Opis )...

Wciągające studium nierozwiązanej sprawy mordercy z Golden Gate, który terroryzował Kalifornię w latach 70. i 80.

...( Dane Techniczne )...

Format : MPEG-4 at 1.235 kb/s
Length : 489 MiB for 55 min 23s 158 ms

Video #0 : AVC at 1.037 kb/s
Aspect : 1920 x 1080 (1.778) at 25.000 fps

Audio #0 : AAC at 192 kb/s
Infos : 2 kanały, 48,0 kHz
Language : pl

==Torrent==
Kategoria: TV/Seriale » Dokumentalny


Dodał: edgarr
Data dodania:
2020-08-05 20:12:56
Rozmiar: 2.91 GB
Seedów: 43
Peerów: 95
Pobrano: 68 razy

Komentarze: 0


...( Info )...

> TYTUŁ ORYGINALNY: Polska z góry [Serial polski]
> PRODUKCJA: Polska
> GATUNEK: Dokumentalny, EAP
> ROK PRODUKCJI: 2017
> PREMIERA: 21 sierpnia 2017
> ILOŚĆ SEZONÓW: 4
> ILOŚĆ ODCINKÓW: 12 + 1 odcinek specjalny (Sezon 1)
> CZAS ODCINKA: 23-24 min.

> REŻYSERIA: Rymwid Błaszczak
> SCENARIUSZ: Radosław Orzeł, Kasha Bittner, Aneta Wróbel, Agnieszka Bomba
> OPERATORZY DRONÓW: Paweł Sudoł, Zbigniew Ciuliński, Mikołaj Gacka
> MONTAŻ: Jacek Jonas, Tomasz Skarbecki





...( O filmie )...

> OCENA: Filmweb: 8,2/10

https://pl.wikipedia.org/wiki/Polska_z_g%C3%B3ry
http://www.filmpolski.pl/fp/index.php?film=1244143
https://www.filmweb.pl/serial/Polska+z+g%C3%B3ry-2017-800057




...( Opis )...

> Polska z góry – serial dokumentalny o tematyce krajoznawczo-historycznej. Ujęcia kręcone są za pomocą drona, na wysokości od kilkunastu do 500 metrów. W każdym sezonie widzowie wybierają miejscowość, która zostanie zekranizowana w odcinku dodatkowym.
I
[...]

»[Zobacz cały opis

==Torrent==
Kategoria: TV/Seriale » Dokumentalny


Dodał: Jordan-83
Data dodania:
2020-08-05 15:13:13
Rozmiar: 7.15 GB
Seedów: 0
Peerów: 544
Pobrano: 100 razy

Komentarze: 1


...( Info )...

Produkcja: Portugalia
Gatunek: Dokumentalny
Platforma: Netflix
Premiera: 10 marca 2020

...( Opis )...

Prowadzący Felipe Castanhari odkrywa fascynujące fakty ze świata nauki, historii, a także przeróżnych tajemnic i cudów z pomocą specjalistów z różnych dziedzin.

...( Dane Techniczne )...

Video
ID : 1
Format : AVC
Format/Info : Advanced Video Codec
Format profile : Main@L3.1
Format settings : CABAC / 3 Ref Frames
Format settings, CABAC : Yes
Format settings, Reference frames : 3 frames
Codec ID : V_MPEG4/ISO/AVC
Duration : 28 min 7 s
Bit rate mode : Variable
Bit rate : 4 420 kb/s
Maximum bit rate : 6 630 kb/s
Width : 1 280 pixels
Height : 720 pixels
Display aspect ratio : 16:9
Frame rate mode : Constant
Frame rate : 23.976 (24000/1001) FPS
Color space : YUV
Chroma subsampling : 4:2:0
Bit depth : 8 bits
Scan type : Progressive
Bits/(Pixel*Frame) : 0.200
Stream size : 887 MiB (87%)
Writing library : x264 core 148 r2721 6d200cf
Enco
[...]

»[Zobacz cały opis

==Torrent==
Kategoria: TV/Seriale » Dokumentalny


Dodał: Jordan-83
Data dodania:
2020-08-05 14:42:28
Rozmiar: 6.21 GB
Seedów: 50
Peerów: 101
Pobrano: 108 razy

Komentarze: 0


...( Info )...

Produkcja: USA
Gatunek: Dokumentalny
Platforma: Netflix
Premiera: 5 sierpień 2020

...( Opis )...

Serial dokumentalny o ludziach podejrzewanych o ciężkie zbrodnie, którzy są nieuchwytni, choć wyznaczono za nich wysokie nagrody i poszukują ich śledczy z wielu krajów.

...( Obsada )...

Video
ID : 1
Format : AVC
Format/Info : Advanced Video Codec
Format profile : Main@L3.1
Format settings : CABAC / 3 Ref Frames
Format settings, CABAC : Yes
Format settings, Reference frames : 3 frames
Codec ID : V_MPEG4/ISO/AVC
Duration : 47 min 16 s
Bit rate mode : Variable
Bit rate : 4 420 kb/s
Maximum bit rate : 6 630 kb/s
Width : 1 280 pixels
Height : 720 pixels
Display aspect ratio : 16:9
Frame rate mode : Constant
Frame rate : 25.000 FPS
Color space : YUV
Chroma subsampling : 4:2:0
Bit depth : 8 bits
Scan type : Progressive
Bits/(Pixel*Frame) : 0.192
Stream size : 1.43 GiB (87%)
Writing library : x264 core 148 r2722 1b0121b
Encoding settings : c
[...]

»[Zobacz cały opis

==Torrent==
Kategoria: TV/Seriale » Dokumentalny


Dodał: edgarr
Data dodania:
2020-08-05 12:06:19
Rozmiar: 4.10 GB
Seedów: 46
Peerów: 55
Pobrano: 66 razy

Komentarze: 1


...( Info )...

> TYTUŁ ORYGINALNY: Polska z góry [Serial polski]
> PRODUKCJA: Polska
> GATUNEK: Dokumentalny, EAP
> ROK PRODUKCJI: 2017
> PREMIERA: 21 sierpnia 2017
> ILOŚĆ SEZONÓW: 4
> ILOŚĆ ODCINKÓW: 12 + 1 odcinek specjalny (Sezon 1)
> CZAS ODCINKA: 23-24 min.

> REŻYSERIA: Rymwid Błaszczak
> SCENARIUSZ: Radosław Orzeł, Kasha Bittner, Aneta Wróbel, Agnieszka Bomba
> OPERATORZY DRONÓW: Paweł Sudoł, Zbigniew Ciuliński, Mikołaj Gacka
> MONTAŻ: Jacek Jonas, Tomasz Skarbecki





...( O filmie )...

> OCENA: Filmweb: 8,2/10

https://pl.wikipedia.org/wiki/Polska_z_g%C3%B3ry
http://www.filmpolski.pl/fp/index.php?film=1244143
https://www.filmweb.pl/serial/Polska+z+g%C3%B3ry-2017-800057




...( Opis )...

> Polska z góry – serial dokumentalny o tematyce krajoznawczo-historycznej. Ujęcia kręcone są za pomocą drona, na wysokości od kilkunastu do 500 metrów. W każdym sezonie widzowie wybierają miejscowość, która zostanie zekranizowana w odcinku dodatkowym.
I
[...]

»[Zobacz cały opis

==Torrent==
Kategoria: TV/Seriale » Dokumentalny


Dodał: edgarr
Data dodania:
2020-08-03 17:29:25
Rozmiar: 1.03 GB
Seedów: 75
Peerów: 25
Pobrano: 57 razy

Komentarze: 0


...( Info )...

> TYTUŁ ORYGINALNY: Poland In Undiscovered
> GATUNEK: Dokumentalny, Turystyczny, Przyrodniczy, Kulinarny, EAP
> PRODUKCJA: Polska
> PREMIERA: 2019
> ILOŚĆ ODCINKÓW: 74 (stan na: 1.08.2020)
> CZAS ODCINKA: 10-12 min.





...( O filmie )...

> Amerykański dziennikarz Ryan Socash pokazuje obraz Polski Anno Domini 2019 i tworzy prawdziwy dokument naszych czasów! Ekipa odwiedza wielkie polskie miasta i ich atrakcje, ale też małe miasteczka daleko od głównych tras, pokazuje alternatywne szlaki i spotyka się ze zwykłymi ludźmi. Ryan Socash przemierza kraj od morza do Tatr, poznając jego piękno, tropiąc historię, zachwycając się niesamowitością przyrody i spotykając na swojej drodze ludzi, których nigdzie indziej spotkać nie sposób. Niezależnie od tego, czy wieje halny, czy wiatr od morza. Dziennikarz tropi smaki i smaczki naszego kraju, odkrywając piękno i niesamowitość swojej drugiej ojczyzny. (vod.tvp.pl)

> 11 listopada 2018 wystartował Poland In, anglojęz
[...]

»[Zobacz cały opis

==Torrent==
Kategoria: TV/Seriale » Dokumentalny


Dodał: feniks
Data dodania:
2020-08-02 20:29:16
Rozmiar: 2.72 GB
Seedów: 4
Peerów: 0
Pobrano: 53 razy

Komentarze: 0


...( Info )...

Produkcja: Polska
Gatunek: Dokumentalny
Premiera: 25 lutego 2019
Kanał Discovery Channel

https://www.youtube.com/watch?v=iTW7dNBhjA8


...( Opis )...


CIĘŻARÓWKĄ PRZEZ STANY
Ten program to przewodnik po najciekawszych zakątkach Stanów Zjednoczonych, a za razem możliwość poznania pracy kierowcy ciężarówki od kuchni. Przemierzymy Amerykę Północną wzdłuż i wszerz.
Głównym bohaterem i przewodnikiem po USA będzie Dawid Andres - pochodzący z Polski kierowca, który na co dzień pracuje w firmie transportowej.
Dawid nie boi się wyzwań - to, oprócz jego brata, jedyna osoba na świecie, która pokonała Amazonkę na rowerze wodnym! Odwaga u truckera to bardzo przydatna cecha. W ostatnich rankingach właśnie ta profesja uplasowała się na ósmym miejscu wśród najbardziej niebezpiecznych zawodów w USA. Życie zawodowego kierowcy osiemnastokołowego pojazdu to nie bajka - Dawid Andres wie o tym doskonale, a mimo to nadal z wielką pasją przemierza tysiące kilometrów amerykańs
[...]

»[Zobacz cały opis

==Torrent==
Kategoria: TV/Seriale » Dokumentalny


Dodał: Jordan-83
Data dodania:
2020-08-01 07:28:45
Rozmiar: 3.62 GB
Seedów: 28
Peerów: 533
Pobrano: 161 razy

Komentarze: 0


...( Info )...

Produkcja: Wielka Brytania
Gatunek: Dokumentalny
Platforma: Netflix
Premiera: 29 lipca 2020

...( Opis )...

Wyobraź sobie, że jesteś w więzieniu. Teraz wyobraź sobie życie w obcym kraju. Strasze? Paul Connelly zabiera cię do tych więzień. Pokazuje, jakie są warunki bytowe dla więźniów i strażników. Nigdy nie będziesz patrzeć już tak samo na więzienie.

...( Dane Techniczne )...

Format : MPEG-4 at 1.363 kb/s
Length : 459 MiB for 47 min 4s 514 ms

Video #0 : AVC at 1.229 kb/s
Aspect : 1280 x 720 (1.778) at 25.000 fps

Audio #0 : AAC at 128 kb/s
Infos : 2 kanały, 44,1 kHz

==Torrent==
Kategoria: TV/Seriale » Dokumentalny


Dodał: feniks
Data dodania:
2020-07-31 19:57:47
Rozmiar: 2.66 GB
Seedów: 2
Peerów: 6
Pobrano: 51 razy

Komentarze: 0


...( Info )...

Produkcja: Polska
Gatunek: Rozrywka
Premiera 1 Sezonu: 2016

...( Opis )...

Zasady tego programu są bardzo proste: Paweł Miszta i Przemysław Szafrański mają zarobić jak najwięcej na jednym samochodzie - wygrywa ten, kto dysponując tym samym budżetem wygeneruje większy zysk. Handlarze głowią się, by jak najtaniej kupić jak najlepszą bazę, uwijają się jak w ukropie przy wykonywaniu na własną rękę koniecznych poprawek i używają swoich negocjacyjnych zdolności by przekonać potencjalnego klienta do zakupu. W dziewiątej serii przekonamy się, czy w pojedynku dwóch niemieckich aut kompakt klasy premium jest w stanie pokonać pełnowymiarową limuzynę oraz jak wypadnie amerykański sedan w konfrontacji z japońskim vanem. Handlarze poszukają okazji dysponując kwotą zaledwie 9 tysięcy złotych. W Lublinie Paweł trafi na podniszczonego, ale wciąż sprawnego technicznie Mercedesa klasy S W220 - głównym problemem bogato wyposażonego egzemplarza z 5-litrowym motorem z instalacją ga
[...]

»[Zobacz cały opis

==Torrent==
Kategoria: TV/Seriale » Dokumentalny


Dodał: Jordan-83
Data dodania:
2020-07-31 15:18:54
Rozmiar: 3.87 GB
Seedów: 681
Peerów: 468
Pobrano: 197 razy

Komentarze: 0


...( Info )...

Produkcja: Wielka Brytania
Gatunek: Dokumentalny
Platforma: Netflix
Premiera: 29 lipca 2020

...( Opis )...

Wyobraź sobie, że jesteś w więzieniu. Teraz wyobraź sobie życie w obcym kraju. Strasze? Paul Connelly zabiera cię do tych więzień. Pokazuje, jakie są warunki bytowe dla więźniów i strażników. Nigdy nie będziesz patrzeć już tak samo na więzienie.

...( Dane Techniczne )...

Format : MPEG-4 at 1.581 kb/s
Length : 494 MiB for 43 min 42s 320 ms

Video #0 : AVC at 1.447 kb/s
Aspect : 1280 x 720 (1.778) at 25.000 fps

Audio #0 : AAC at 128 kb/s
Infos : 2 kanały, 44,1 kHz

==Torrent==
Kategoria: TV/Seriale » Dokumentalny


Dodał: Jordan-83
Data dodania:
2020-07-31 07:10:33
Rozmiar: 9.50 GB
Seedów: 74
Peerów: 63
Pobrano: 118 razy

Komentarze: 0


...( Info )...

Produkcja: USA
Gatunek: Dokumentalny
Platforma: Amazon Prime
Premiera: 31 lipca 2020

...( Opis )...

W 1985 roku amerykański agent DEA, Enrique „Kiki” Camarena, został porwany, a następnie torturowany i zamordowany przez meksykańskich baronów narkotykowych. Trzydzieści pięć lat później dawni członkowie kartelu postanowili zdradzić szczegóły tego zajścia. Oto opowieść o Camarenie i kartelu narkotykowym, który zinfiltrował, a także o agencie, który ryzykował wszystkim, by odkryć prawdę.

...( Dane Techniczne )...

Napisy wmuksowane należy wybrać w odtwarzaczu

Video
ID : 1
Format : AVC
Format/Info : Advanced Video Codec
Format profile : High@L4
Format settings : CABAC / 4 Ref Frames
Format settings, CABAC : Yes
Format settings, Reference frames : 4 frames
Codec ID : V_MPEG4/ISO/AVC
Duration : 45 min 36 s
Bit rate mode : Constant
Bit rate : 6 890 kb/s
Nominal bit rate : 10 000 kb/s
Width : 1 920 pixels
Height : 1 080 pixels
Display aspect rat
[...]

»[Zobacz cały opis

==Torrent==
Kategoria: TV/Seriale » Dokumentalny


Dodał: feniks
Data dodania:
2020-07-30 21:04:28
Rozmiar: 1.36 GB
Seedów: 2
Peerów: 0
Pobrano: 14 razy

Komentarze: 3


...( Info )...

Produkcja: Polska
Gatunek: Rozrywka
Premiera: 2017

https://www.youtube.com/watch?v=1P11icNC-pY

...( Opis )...

Dla nich nie ma rzeczy niemożliwych! Zniszczyć, wyburzyć, zrównać z ziemią potrafią po prostu wszystko! W nowym programie kamera będzie towarzyszyła kilku ekipom zawodowych burzycieli podczas ich codziennej, ale jednak niezwykłej pracy. „Wyburzacze” podejmą się arcytrudnych rozbiórek, zarówno małych, jak i tych ogromnych obiektów.
Pokażemy jak wyburza się wielopiętrowy blok i jakie czynności podejmuje się przy rozbiórce małego jednorodzinnego domu. To świetna okazja, by z bliska przyjrzeć się temu, jak krok po kroku wygląda ta ciężka i niebezpieczna praca. Tutaj najmniejszy nawet błąd może mieć katastrofalne skutki.

...( Dane Techniczne )...

Przykładowego Odcinka:

Format : MPEG-4 at 1.994 kb/s
Length : 478 MiB for 33 min 30s 517 ms

Video #0 : AVC at 1.781 kb/s
Aspect : 1280 x 720 (1.778) at 25.000 fps

Audio #0 : AAC at 128 kb/s
In
[...]

»[Zobacz cały opis

==Torrent==
Kategoria: TV/Seriale » Dokumentalny


Dodał: feniks
Data dodania:
2020-07-30 18:11:19
Rozmiar: 2.09 GB
Seedów: 2
Peerów: 0
Pobrano: 54 razy

Komentarze: 0


...( Info )...

Produkcja: Polska
Gatunek: Dokumentalny
Premiera: 25 lutego 2019
Kanał Discovery Channel

https://www.youtube.com/watch?v=iTW7dNBhjA8


...( Opis )...


CIĘŻARÓWKĄ PRZEZ STANY
Ten program to przewodnik po najciekawszych zakątkach Stanów Zjednoczonych, a za razem możliwość poznania pracy kierowcy ciężarówki od kuchni. Przemierzymy Amerykę Północną wzdłuż i wszerz.
Głównym bohaterem i przewodnikiem po USA będzie Dawid Andres - pochodzący z Polski kierowca, który na co dzień pracuje w firmie transportowej.
Dawid nie boi się wyzwań - to, oprócz jego brata, jedyna osoba na świecie, która pokonała Amazonkę na rowerze wodnym! Odwaga u truckera to bardzo przydatna cecha. W ostatnich rankingach właśnie ta profesja uplasowała się na ósmym miejscu wśród najbardziej niebezpiecznych zawodów w USA. Życie zawodowego kierowcy osiemnastokołowego pojazdu to nie bajka - Dawid Andres wie o tym doskonale, a mimo to nadal z wielką pasją przemierza tysiące kilometrów amerykańs
[...]

»[Zobacz cały opis

==Torrent==
Kategoria: TV/Seriale » Dokumentalny


Dodał: Hytry1
Data dodania:
2020-07-30 12:10:03
Rozmiar: 830.89 MB
Seedów: 300
Peerów: 58
Pobrano: 79 razy

Komentarze: 0


..::(Info)::..

*Gatunek filmu: Dokumentalny
*Kraj produkcji:
*Data premiery: 2020
*Czas trwania filmu: 45 min
*Reżyseria:

..::(Opis)::..

Portret polityka, który wykreował swój wizerunek na rosyjskiego Jamesa Bonda, a którego rządy mają w sobie coś thrillera szpiegowskiego. Władimir Putin rządzi w Rosji żelazną ręką już od 20 lat.

..::(Dane Techniczne)::..

Format : AVI at 2.384 kb/s
Length : 784 MiB for 45 min 59s 560 ms

Video #0 : MPEG-4 Visual at 2.181 kb/s
Aspect : 854 x 480 (1.779) at 25.000 fps

Audio #0 : AC-3 at 192 kb/s
Infos : 2 kanały, 44,1 kHz

==Torrent==
Kategoria: TV/Seriale » Dokumentalny


Dodał: Jordan-83
Data dodania:
2020-07-28 20:06:59
Rozmiar: 1.94 GB
Seedów: 0
Peerów: 0
Pobrano: 19 razy

Komentarze: 0


...( Info )...

Produkcja: USA
Gatunek: Dokumentalny
Platforma: YouTube Originals
Premiera: 27 styczeń 2020

...( Opis )...

Światowej sławy artysta Justin Bieber po raz pierwszy odkrywa się przed fanami i pozwala im poznać z bliska kilka ostatnich lat swojego życia. Od uroków małżeństwa po zmagania w trudnych okresach, Justin opowiada o swoich największych wyzwaniach, nagrywając jednocześnie swój pierwszy album od roku 2015.

...( Dane Techniczne )...

Video
ID : 1
Format : VP9
Codec ID : V_VP9
Duration : 16 min 22 s
Bit rate : 2 130 kb/s
Width : 1 920 pixels
Height : 1 080 pixels
Display aspect ratio : 16:9
Frame rate mode : Constant
Frame rate : 23.976 (24000/1001) FPS
Bits/(Pixel*Frame) : 0.043
Stream size : 249 MiB (84%)
Default : Yes
Forced : No

Audio
ID : 2
Format : AAC LC
Format/Info : Advanced Audio Codec Low Complexity
Codec ID : A_AAC-2
Duration : 16 min 22 s
Bit rate : 384 kb/s
Channel(s) : 6 channels
Channel layout : C L R Ls Rs LFE
S
[...]

»[Zobacz cały opis

==Torrent==
Kategoria: TV/Seriale » Dokumentalny


Dodał: Jordan-83
Data dodania:
2020-07-28 14:20:38
Rozmiar: 3.67 GB
Seedów: 407
Peerów: 182
Pobrano: 69 razy

Komentarze: 0


...( Info )...

Produkcja: USA
Gatunek: Dokument-Kryminalny
Platforma: Netflix
Premiera: 15 Styczeń 2020

...( Opis )...

Historia Aarona Hernandeza, gwiazdora drużyny futbolowej New England Patriots, który z zimną krwią zamordował kolegę i zamienił boisko na spacerniak.

...( Dane Techniczne )...

Format : MPEG-4 at 2.614 kb/s
Length : 1,21 GB for 1 h 6 min 26s 767 ms

Video #0 : AVC at 2.500 kb/s
Aspect : 1280 x 720 (1.778) at 23.976 fps

Audio #0 : AAC at 160 kb/s
Infos : 6 kanałów, 44,1 kHz

==Torrent==
Kategoria: TV/Seriale » Dokumentalny


Dodał: Jordan-83
Data dodania:
2020-07-28 11:51:09
Rozmiar: 1.99 GB
Seedów: 0
Peerów: 0
Pobrano: 79 razy

Komentarze: 0


...( Info )...

Produkcja: USA
Gatunek: Dokument-Kryminalny
Platforma: Netflix
Premiera: 5 luty 2020

...( Opis )...

Tragiczna śmierć syna sprawia, że farmaceuta z Luizjany nie cofnie się przed niczym, aby obnażyć mechanizmy, które doprowadziły do kryzysu opioidowego w USA.

...( Dane Techniczne )...

Format : MPEG-4 at 1.310 kb/s
Length : 568 MiB for 1 h 0 min 38s 72 ms

Video #0 : AVC at 1.175 kb/s
Aspect : 1280 x 720 (1.778) at 23.976 fps

Audio #0 : AAC at 127 kb/s
Infos : 2 kanały, 44,1 kHz

==Torrent==
Kategoria: TV/Seriale » Dokumentalny


Dodał: Jordan-83
Data dodania:
2020-07-28 11:21:06
Rozmiar: 1.49 GB
Seedów: 0
Peerów: 0
Pobrano: 58 razy

Komentarze: 0


...( Info )...

Produkcja: USA
Gatunek: Dokumentalny
Twórca: Karen Sim
Stacja TV: HBO
Premiera: 23 lipca 2019

...( Opis )...

W produkcji tej przedstawiona została sprawa morderstwa 12-letniego Garretta Phillipsa, którego ciało zostało znalezione w jego domu 24 października 2011 r. Policja szybko wpadła na trop podejrzanego tej niewyobrażalnej zbrodni, którym był ich zdaniem Oral "Nick" Hillary, trener piłki nożnej na Clarkson University i były chłopak matki Garretta, Tandy Cyrus. Film dokumentalny HBO "Kto zabił Garretta Phillipsa?" ma na celu odkrycie prawdy, która stała za tragicznym morderstwem chłopca i wpłynęła na życie całego miasta oraz szukanie winnego w czarnym mężczyźnie, żyjącym w zdominowanej przez białych społeczności.

...( Dane Techniczne )...

Format : MPEG-4 at 1.197 kb/s
Length : 892 MiB for 1 h 44 min 13s 623 ms

Video #0 : AVC at 1.063 kb/s
Aspect : 720 x 400 (1.800) at 23.976 fps

Audio #0 : AAC at 128 kb/s
Infos : 2 kanały, 48,0 kHz

==Torrent==
Kategoria: TV/Seriale » Dokumentalny


Dodał: feniks
Data dodania:
2020-07-26 08:46:53
Rozmiar: 2.75 GB
Seedów: 2
Peerów: 0
Pobrano: 58 razy

Komentarze: 1


...( Info )...

Produkcja: Polska
Gatunek: Dokumentalny
Premiera: 25 lutego 2019
Kanał Discovery Channel

https://www.youtube.com/watch?v=iTW7dNBhjA8


...( Opis )...


CIĘŻARÓWKĄ PRZEZ STANY
Ten program to przewodnik po najciekawszych zakątkach Stanów Zjednoczonych, a za razem możliwość poznania pracy kierowcy ciężarówki od kuchni. Przemierzymy Amerykę Północną wzdłuż i wszerz.
Głównym bohaterem i przewodnikiem po USA będzie Dawid Andres - pochodzący z Polski kierowca, który na co dzień pracuje w firmie transportowej.
Dawid nie boi się wyzwań - to, oprócz jego brata, jedyna osoba na świecie, która pokonała Amazonkę na rowerze wodnym! Odwaga u truckera to bardzo przydatna cecha. W ostatnich rankingach właśnie ta profesja uplasowała się na ósmym miejscu wśród najbardziej niebezpiecznych zawodów w USA. Życie zawodowego kierowcy osiemnastokołowego pojazdu to nie bajka - Dawid Andres wie o tym doskonale, a mimo to nadal z wielką pasją przemierza tysiące kilometrów amerykańs
[...]

»[Zobacz cały opis

==Torrent==
Kategoria: TV/Seriale » Dokumentalny


Dodał: feniks
Data dodania:
2020-07-24 08:24:23
Rozmiar: 2.06 GB
Seedów: 2
Peerów: 0
Pobrano: 65 razy

Komentarze: 0


...( Info )...

Produkcja: Polska
Gatunek: Dokumentalny
Premiera: 25 lutego 2019
Kanał Discovery Channel

https://www.youtube.com/watch?v=iTW7dNBhjA8


...( Opis )...


CIĘŻARÓWKĄ PRZEZ STANY
Ten program to przewodnik po najciekawszych zakątkach Stanów Zjednoczonych, a za razem możliwość poznania pracy kierowcy ciężarówki od kuchni. Przemierzymy Amerykę Północną wzdłuż i wszerz.
Głównym bohaterem i przewodnikiem po USA będzie Dawid Andres - pochodzący z Polski kierowca, który na co dzień pracuje w firmie transportowej.
Dawid nie boi się wyzwań - to, oprócz jego brata, jedyna osoba na świecie, która pokonała Amazonkę na rowerze wodnym! Odwaga u truckera to bardzo przydatna cecha. W ostatnich rankingach właśnie ta profesja uplasowała się na ósmym miejscu wśród najbardziej niebezpiecznych zawodów w USA. Życie zawodowego kierowcy osiemnastokołowego pojazdu to nie bajka - Dawid Andres wie o tym doskonale, a mimo to nadal z wielką pasją przemierza tysiące kilometrów amerykańs
[...]

»[Zobacz cały opis

==Torrent==
Kategoria: TV/Seriale » Dokumentalny


Dodał: Hytry1
Data dodania:
2020-07-23 11:08:51
Rozmiar: 784.52 MB
Seedów: 166
Peerów: 19
Pobrano: 117 razy

Komentarze: 0


..::(Info)::..

*Gatunek filmu: Dokumentalny
*Kraj produkcji:
*Data premiery: 2020
*Czas trwania filmu: 45 min
*Reżyseria:

..::(Opis)::..

Portret polityka, który wykreował swój wizerunek na rosyjskiego Jamesa Bonda, a którego rządy mają w sobie coś thrillera szpiegowskiego. Władimir Putin rządzi w Rosji żelazną ręką już od 20 lat.

..::(Dane Techniczne)::..

Format : AVI at 2.384 kb/s
Length : 784 MiB for 45 min 59s 560 ms

Video #0 : MPEG-4 Visual at 2.181 kb/s
Aspect : 854 x 480 (1.779) at 25.000 fps

Audio #0 : AC-3 at 192 kb/s
Infos : 2 kanały, 44,1 kHz

==Torrent==
Kategoria: TV/Seriale » Dokumentalny


Dodał: Wilu75
Data dodania:
2020-07-22 18:39:41
Rozmiar: 3.91 GB
Seedów: 211
Peerów: 309
Pobrano: 212 razy

Komentarze: 0


==================
...::: INFO :::...
==================
Tytuł: Miasto strachu: Nowy Jork kontra mafia - Fear City: New York vs the Mafia / Sezon 01 [2020] [Epizodów:3]
Ocena: IMDB - 8.5/10 (41), Filmweb - 8.1/10 (7)
Gatunek: Dokumentalny, Kryminał
Produkcja: USA
Stacja telewizyjna: Netflix
Data premiery serialu: 22.07.2020 - Świat
Czas trwania odcinka około 48 min.
Reżyseria: Sam Hobkinson

==================
...::: OPIS :::...
==================
W latach 70. i 80. XX w. słynnych Pięć Rodzin nowojorskiej mafii - Bonanno, Colombo, Gambino, Genovese i Luccese - rządziło całym miastem żelazną ręką. W tym trzyczęściowym miniserialu dokumentalnym produkcji RAW ("Odwal się od kotów":wink: i Brillstein Entertainment nagrodzony reżyser Sam Hobkinson przedstawia niesamowitą historię przełomowej sprawy sądowej wytoczonej największym mafiozom Nowego Jorku i śledztwa, które do niej doprowadziło. Przedstawione w serialu "Miasto strachu: Nowy Jork kontra mafia" wywiady z licznymi przedsta
[...]

»[Zobacz cały opis

==Torrent==
Kategoria: TV/Seriale » Dokumentalny


Dodał: Jordan-83
Data dodania:
2020-07-22 11:49:22
Rozmiar: 985.28 MB
Seedów: 0
Peerów: 0
Pobrano: 98 razy

Komentarze: 0


...( Info )...

Produkcja: USA
Gatunek: Dokument-kryminalny
Platforma: Netflix
Premiera: 22 lipiec 2020

...( Opis )...

W latach 70. i 80. XX w. w Nowym Jorku pięć mafijnych rodzin sprawowało niepodważalne, krwawe rządy. Do czasu, gdy pewna grupa agentów federalnych rzuciła im wyzwanie.

...( Dane Techniczne )...

Format : MPEG-4 at 963 kb/s
Length : 336 MiB for 48 min 45s 355 ms

Video #0 : AVC at 830 kb/s
Aspect : 1280 x 720 (1.778) at 23.976 fps

Audio #0 : AAC at 128 kb/s
Infos : 2 kanały, 48,0 kHz

==Torrent==
Kategoria: TV/Seriale » Dokumentalny


Dodał: feniks
Data dodania:
2020-07-21 20:24:00
Rozmiar: 2.08 GB
Seedów: 2
Peerów: 2
Pobrano: 71 razy

Komentarze: 0


...( Info )...

Produkcja: Polska
Gatunek: Dokumentalny
Premiera: 25 lutego 2019
Kanał Discovery Channel

https://www.youtube.com/watch?v=iTW7dNBhjA8


...( Opis )...


CIĘŻARÓWKĄ PRZEZ STANY
Ten program to przewodnik po najciekawszych zakątkach Stanów Zjednoczonych, a za razem możliwość poznania pracy kierowcy ciężarówki od kuchni. Przemierzymy Amerykę Północną wzdłuż i wszerz.
Głównym bohaterem i przewodnikiem po USA będzie Dawid Andres - pochodzący z Polski kierowca, który na co dzień pracuje w firmie transportowej.
Dawid nie boi się wyzwań - to, oprócz jego brata, jedyna osoba na świecie, która pokonała Amazonkę na rowerze wodnym! Odwaga u truckera to bardzo przydatna cecha. W ostatnich rankingach właśnie ta profesja uplasowała się na ósmym miejscu wśród najbardziej niebezpiecznych zawodów w USA. Życie zawodowego kierowcy osiemnastokołowego pojazdu to nie bajka - Dawid Andres wie o tym doskonale, a mimo to nadal z wielką pasją przemierza tysiące kilometrów amerykańs
[...]

»[Zobacz cały opis

==Torrent==
Kategoria: TV/Seriale » Dokumentalny


Dodał: feniks
Data dodania:
2020-07-20 08:34:01
Rozmiar: 2.07 GB
Seedów: 2
Peerów: 0
Pobrano: 81 razy

Komentarze: 0


...( Info )...

Produkcja: Polska
Gatunek: Dokumentalny
Premiera: 25 lutego 2019
Kanał Discovery Channel

https://www.youtube.com/watch?v=iTW7dNBhjA8


...( Opis )...


CIĘŻARÓWKĄ PRZEZ STANY
Ten program to przewodnik po najciekawszych zakątkach Stanów Zjednoczonych, a za razem możliwość poznania pracy kierowcy ciężarówki od kuchni. Przemierzymy Amerykę Północną wzdłuż i wszerz.
Głównym bohaterem i przewodnikiem po USA będzie Dawid Andres - pochodzący z Polski kierowca, który na co dzień pracuje w firmie transportowej.
Dawid nie boi się wyzwań - to, oprócz jego brata, jedyna osoba na świecie, która pokonała Amazonkę na rowerze wodnym! Odwaga u truckera to bardzo przydatna cecha. W ostatnich rankingach właśnie ta profesja uplasowała się na ósmym miejscu wśród najbardziej niebezpiecznych zawodów w USA. Życie zawodowego kierowcy osiemnastokołowego pojazdu to nie bajka - Dawid Andres wie o tym doskonale, a mimo to nadal z wielką pasją przemierza tysiące kilometrów amerykańs
[...]

»[Zobacz cały opis

==Torrent==
Kategoria: TV/Seriale » Dokumentalny


Dodał: feniks
Data dodania:
2020-07-20 08:29:41
Rozmiar: 1.60 GB
Seedów: 2
Peerów: 0
Pobrano: 78 razy

Komentarze: 0


...( Info )...

Produkcja: Polska
Gatunek: Dokumentalny
Premiera: 25 luty 2020
Kanał Discovery Channel


https://www.youtube.com/watch?v=QMCTuxNCgNA

...( Opis )...

Dawid Andres rusza na kolejną daleką wyprawę. Tym razem przyszła pora na Afrykę! Na miejscu czekają na niego zaskakujące trasy, nietypowe widoki, nieprzewidywalne trudności oraz oryginalna lokalna kuchnia i kultura. Jak to wszystko wygląda z perspektywy przebojowego kierowcy ciężarówki?

Zbaczając z głównych szlaków, Dawid pozna prawdziwą Afrykę. Posiłki zje ze swoim przewodnikiem w przydrożnych barach, zamawiając lokalne przysmaki, takie jak pieczony mózg krowi. Sam też znajdzie się w samym środku niebezpiecznych wydarzeń – zostanie pasażerem starego land rovera, którego kierowca straci kontrolę nad pojazdem i uderzy z dużą prędkością w przydrożne skały wulkaniczne. Auto będzie dachowało z Dawidem na pace.

Podróż Dawida zaczyna się w Kenii, w Mombasie. Miasto tętni życiem, a wielki ruch uliczny sprawia, ż
[...]

»[Zobacz cały opis

==Torrent==
Kategoria: TV/Seriale » Dokumentalny


Dodał: Jordan-83
Data dodania:
2020-07-19 16:45:00
Rozmiar: 10.90 GB
Seedów: 20
Peerów: 8
Pobrano: 33 razy

Komentarze: 0


...( Info )...

Produkcja: USA
Gatunek: Dokumentalny
Twórca: Clay Tweel
Platforma: Netflix
Premiera: 14 grudnia 2018

...( Opis )...

Historia Rona Williamsona, człowieka, który przez 11 lat siedział w celi śmierci w Oklahomie za przestępstwo, którego nie popełnił. Na podstawie "Niewinnego" Johna Grishama.

...( Dane Techniczne )...

Video
ID : 1
Format : AVC
Format/Info : Advanced Video Codec
Format profile : Main@L4
Format settings : CABAC / 3 Ref Frames
Format settings, CABAC : Yes
Format settings, ReFrames : 3 frames
Codec ID : V_MPEG4/ISO/AVC
Duration : 52 min 1 s
Bit rate mode : Variable
Bit rate : 5 800 kb/s
Maximum bit rate : 8 700 kb/s
Width : 1 920 pixels
Height : 1 080 pixels
Display aspect ratio : 16:9
Frame rate mode : Constant
Frame rate : 23.976 (24000/1001) FPS
Color space : YUV
Chroma subsampling : 4:2:0
Bit depth : 8 bits
Scan type : Progressive
Bits/(Pixel*Frame) : 0.117
Stream size : 2.09 GiB (90%)
Writing library : x264 core 14
[...]

»[Zobacz cały opis

==Torrent==
Kategoria: TV/Seriale » Dokumentalny


Dodał: feniks
Data dodania:
2020-07-18 22:35:16
Rozmiar: 1.40 GB
Seedów: 28
Peerów: 20
Pobrano: 77 razy

Komentarze: 0


...( Info )...

Produkcja: Polska
Gatunek: Dokumentalny
Premiera: 25 lutego 2019
Kanał Discovery Channel

https://www.youtube.com/watch?v=iTW7dNBhjA8


...( Opis )...


CIĘŻARÓWKĄ PRZEZ STANY
Ten program to przewodnik po najciekawszych zakątkach Stanów Zjednoczonych, a za razem możliwość poznania pracy kierowcy ciężarówki od kuchni. Przemierzymy Amerykę Północną wzdłuż i wszerz.
Głównym bohaterem i przewodnikiem po USA będzie Dawid Andres - pochodzący z Polski kierowca, który na co dzień pracuje w firmie transportowej.
Dawid nie boi się wyzwań - to, oprócz jego brata, jedyna osoba na świecie, która pokonała Amazonkę na rowerze wodnym! Odwaga u truckera to bardzo przydatna cecha. W ostatnich rankingach właśnie ta profesja uplasowała się na ósmym miejscu wśród najbardziej niebezpiecznych zawodów w USA. Życie zawodowego kierowcy osiemnastokołowego pojazdu to nie bajka - Dawid Andres wie o tym doskonale, a mimo to nadal z wielką pasją przemierza tysiące kilometrów ameryka
[...]

»[Zobacz cały opis

==Torrent==
Kategoria: TV/Seriale » Dokumentalny


Dodał: feniks
Data dodania:
2020-07-18 20:56:27
Rozmiar: 1.61 GB
Seedów: 14
Peerów: 22
Pobrano: 87 razy

Komentarze: 0


...( Info )...

Produkcja: Polska
Gatunek: Dokumentalny
Premiera: 25 luty 2020
Kanał Discovery Channel


https://www.youtube.com/watch?v=QMCTuxNCgNA

...( Opis )...

Dawid Andres rusza na kolejną daleką wyprawę. Tym razem przyszła pora na Afrykę! Na miejscu czekają na niego zaskakujące trasy, nietypowe widoki, nieprzewidywalne trudności oraz oryginalna lokalna kuchnia i kultura. Jak to wszystko wygląda z perspektywy przebojowego kierowcy ciężarówki?

Zbaczając z głównych szlaków, Dawid pozna prawdziwą Afrykę. Posiłki zje ze swoim przewodnikiem w przydrożnych barach, zamawiając lokalne przysmaki, takie jak pieczony mózg krowi. Sam też znajdzie się w samym środku niebezpiecznych wydarzeń – zostanie pasażerem starego land rovera, którego kierowca straci kontrolę nad pojazdem i uderzy z dużą prędkością w przydrożne skały wulkaniczne. Auto będzie dachowało z Dawidem na pace.

Podróż Dawida zaczyna się w Kenii, w Mombasie. Miasto tętni życiem, a wielki ruch uliczny sprawia, ż
[...]

»[Zobacz cały opis

==Torrent==
Kategoria: TV/Seriale » Dokumentalny


Dodał: feniks
Data dodania:
2020-07-18 20:55:27
Rozmiar: 2.54 GB
Seedów: 14
Peerów: 10
Pobrano: 79 razy

Komentarze: 0


...( Info )...

Produkcja: Polska
Gatunek: Dokumentalny
Premiera: 25 luty 2020
Kanał Discovery Channel


https://www.youtube.com/watch?v=QMCTuxNCgNA

...( Opis )...

Dawid Andres rusza na kolejną daleką wyprawę. Tym razem przyszła pora na Afrykę! Na miejscu czekają na niego zaskakujące trasy, nietypowe widoki, nieprzewidywalne trudności oraz oryginalna lokalna kuchnia i kultura. Jak to wszystko wygląda z perspektywy przebojowego kierowcy ciężarówki?

Zbaczając z głównych szlaków, Dawid pozna prawdziwą Afrykę. Posiłki zje ze swoim przewodnikiem w przydrożnych barach, zamawiając lokalne przysmaki, takie jak pieczony mózg krowi. Sam też znajdzie się w samym środku niebezpiecznych wydarzeń – zostanie pasażerem starego land rovera, którego kierowca straci kontrolę nad pojazdem i uderzy z dużą prędkością w przydrożne skały wulkaniczne. Auto będzie dachowało z Dawidem na pace.

Podróż Dawida zaczyna się w Kenii, w Mombasie. Miasto tętni życiem, a wielki ruch uliczny sprawia, ż
[...]

»[Zobacz cały opis

==Torrent==
Kategoria: TV/Seriale » Dokumentalny


Dodał: edgarr
Data dodania:
2020-07-16 17:19:39
Rozmiar: 1.75 GB
Seedów: 41
Peerów: 8
Pobrano: 47 razy

Komentarze: 0


...( Info )...

> TYTUŁ ORYGINALNY: Poland In Undiscovered
> GATUNEK: Dokumentalny, Turystyczny, Przyrodniczy, Kulinarny, EAP
> PRODUKCJA: Polska
> PREMIERA: 2019
> ILOŚĆ ODCINKÓW: 71 (stan na: 11.07.2020)
> CZAS ODCINKA: 10-12 min.





...( O filmie )...

> Amerykański dziennikarz Ryan Socash pokazuje obraz Polski Anno Domini 2019 i tworzy prawdziwy dokument naszych czasów! Ekipa odwiedza wielkie polskie miasta i ich atrakcje, ale też małe miasteczka daleko od głównych tras, pokazuje alternatywne szlaki i spotyka się ze zwykłymi ludźmi. Ryan Socash przemierza kraj od morza do Tatr, poznając jego piękno, tropiąc historię, zachwycając się niesamowitością przyrody i spotykając na swojej drodze ludzi, których nigdzie indziej spotkać nie sposób. Niezależnie od tego, czy wieje halny, czy wiatr od morza. Dziennikarz tropi smaki i smaczki naszego kraju, odkrywając piękno i niesamowitość swojej drugiej ojczyzny. (vod.tvp.pl)

> 11 listopada 2018 wystartował Poland In, angloj
[...]

»[Zobacz cały opis

==Torrent==
Kategoria: TV/Seriale » Dokumentalny


Dodał: edgarr
Data dodania:
2020-07-16 17:18:04
Rozmiar: 1.10 GB
Seedów: 36
Peerów: 8
Pobrano: 44 razy

Komentarze: 0


...( Info )...

> TYTUŁ ORYGINALNY: Poland In Undiscovered
> GATUNEK: Dokumentalny, Turystyczny, Przyrodniczy, Kulinarny, EAP
> PRODUKCJA: Polska
> PREMIERA: 2019
> ILOŚĆ ODCINKÓW: 71 (stan na: 11.07.2020)
> CZAS ODCINKA: 10-12 min.




...( O filmie )...

> Amerykański dziennikarz Ryan Socash pokazuje obraz Polski Anno Domini 2019 i tworzy prawdziwy dokument naszych czasów! Ekipa odwiedza wielkie polskie miasta i ich atrakcje, ale też małe miasteczka daleko od głównych tras, pokazuje alternatywne szlaki i spotyka się ze zwykłymi ludźmi. Ryan Socash przemierza kraj od morza do Tatr, poznając jego piękno, tropiąc historię, zachwycając się niesamowitością przyrody i spotykając na swojej drodze ludzi, których nigdzie indziej spotkać nie sposób. Niezależnie od tego, czy wieje halny, czy wiatr od morza. Dziennikarz tropi smaki i smaczki naszego kraju, odkrywając piękno i niesamowitość swojej drugiej ojczyzny. (vod.tvp.pl)

> 11 listopada 2018 wystartował Poland In, anglojęz
[...]

»[Zobacz cały opis

==Torrent==
Kategoria: TV/Seriale » Dokumentalny


Dodał: Jordan-83
Data dodania:
2020-07-16 13:50:49
Rozmiar: 6.75 GB
Seedów: 0
Peerów: 0
Pobrano: 41 razy

Komentarze: 0


...( Info )...

Produkcja: USA
Gatunek: Dokument-kryminalny
Platforma: Netflix
Premiera: 7 stycznia 2016

...( Opis )...

Podwójne zabójstwa, seryjni mordercy i porwane dzieci to tylko część makabrycznego obrazu, który nakreślają detektywi opowiadający o przeszłości.

Ten serial łączy film dokumentalny z dramatycznymi rekonstrukcjami, gdy aktorzy odtwarzają role prawdziwych detektywów w sprawach, których nie da się zapomnieć.

...( Dane Techniczne )...

Napisy wmuksowane należy wybrać w odtwarzaczu

Video
ID : 1
Format : AVC
Format/Info : Advanced Video Codec
Format profile : Main@L3.1
Format settings : CABAC / 3 Ref Frames
Format settings, CABAC : Yes
Format settings, Reference frames : 3 frames
Codec ID : V_MPEG4/ISO/AVC
Duration : 41 min 27 s
Bit rate mode : Variable
Bit rate : 3 650 kb/s
Maximum bit rate : 5 475 kb/s
Width : 1 280 pixels
Height : 720 pixels
Display aspect ratio : 16:9
Frame rate mode : Constant
Frame rate : 23.976 (24000/1001) FPS
[...]

»[Zobacz cały opis

==Torrent==
Kategoria: TV/Seriale » Dokumentalny


Dodał: Jordan-83
Data dodania:
2020-07-16 13:50:44
Rozmiar: 5.88 GB
Seedów: 0
Peerów: 0
Pobrano: 48 razy

Komentarze: 0


...( Info )...

Produkcja: USA
Gatunek: Dokument-kryminalny
Platforma: Netflix
Premiera: 7 stycznia 2016

...( Opis )...

Podwójne zabójstwa, seryjni mordercy i porwane dzieci to tylko część makabrycznego obrazu, który nakreślają detektywi opowiadający o przeszłości.

Ten serial łączy film dokumentalny z dramatycznymi rekonstrukcjami, gdy aktorzy odtwarzają role prawdziwych detektywów w sprawach, których nie da się zapomnieć.

...( Dane Techniczne )...

Napisy wmuksowane należy wybrać w odtwarzaczu

Video
ID : 1
Format : AVC
Format/Info : Advanced Video Codec
Format profile : Main@L3.1
Format settings : CABAC / 3 Ref Frames
Format settings, CABAC : Yes
Format settings, Reference frames : 3 frames
Codec ID : V_MPEG4/ISO/AVC
Duration : 43 min 30 s
Bit rate mode : Variable
Bit rate : 2 610 kb/s
Maximum bit rate : 3 915 kb/s
Width : 1 280 pixels
Height : 720 pixels
Display aspect ratio : 16:9
Frame rate mode : Constant
Frame rate : 23.976 (24000/1001) FPS
[...]

»[Zobacz cały opis

==Torrent==
Kategoria: TV/Seriale » Dokumentalny


Dodał: Jordan-83
Data dodania:
2020-07-14 17:48:45
Rozmiar: 2.25 GB
Seedów: 81
Peerów: 10
Pobrano: 126 razy

Komentarze: 0


...( Info )...

Produkcja: USA
Gatunek: Dokumentalny
Platforma: Netflix
Premiera: 14 lipca 2020

...( Opis )...

Była analityczka CIA przygląda się sześciu nielegalnym substancjom z ekonomicznego punktu widzenia, aby lepiej zrozumieć historię i mechanizmy rynku narkotykowego.

...( Dane Techniczne )...

Format : MPEG-4 at 1.391 kb/s
Length : 454 MiB for 45 min 37s 110 ms

Video #0 : AVC at 1.259 kb/s
Aspect : 1280 x 720 (1.778) at 23.976 fps

Audio #0 : AAC at 128 kb/s
Infos : 2 kanały, 48,0 kHz
Language : pl

==Torrent==
Kategoria: TV/Seriale » Dokumentalny


Dodał: Jordan-83
Data dodania:
2020-07-14 14:18:53
Rozmiar: 5.04 GB
Seedów: 144
Peerów: 134
Pobrano: 39 razy

Komentarze: 0


...( Info )...

Produkcja: USA
Gatunek: Dokumentalny
Platforma: Netflix
Premiera: 14 lipca 2020

...( Opis )...

Była analityczka CIA przygląda się sześciu nielegalnym substancjom z ekonomicznego punktu widzenia, aby lepiej zrozumieć historię i mechanizmy rynku narkotykowego.

...( Dane Techniczne )...

Video
ID : 1
Format : AVC
Format/Info : Advanced Video Codec
Format profile : Main@L3.1
Format settings : CABAC / 3 Ref Frames
Format settings, CABAC : Yes
Format settings, Reference frames : 3 frames
Codec ID : V_MPEG4/ISO/AVC
Duration : 45 min 37 s
Bit rate mode : Variable
Bit rate : 2 610 kb/s
Maximum bit rate : 3 915 kb/s
Width : 1 280 pixels
Height : 720 pixels
Display aspect ratio : 16:9
Frame rate mode : Constant
Frame rate : 23.976 (24000/1001) FPS
Color space : YUV
Chroma subsampling : 4:2:0
Bit depth : 8 bits
Scan type : Progressive
Bits/(Pixel*Frame) : 0.118
Stream size : 837 MiB (80%)
Writing library : x264 core 148 r2717 0d2410d
Encodin
[...]

»[Zobacz cały opis

==Torrent==
Kategoria: TV/Seriale » Dokumentalny


Dodał: Jordan-83
Data dodania:
2020-07-10 12:37:45
Rozmiar: 10.20 GB
Seedów: 52
Peerów: 48
Pobrano: 40 razy

Komentarze: 0


...( Info )...

Produkcja: USA
Gatunek: Dokumentalny
Platforma: Netflix
Premiera: 10 lipiec 2020

...( Opis )...

Aktor Zac Efron podróżuje dookoła świata, poznając zdrowe i ekologiczne style życia. Towarzyszy mu Darin Olien, ekspert w dziedzinie odnowy biologicznej.

...( Dane Techniczne )...

Napisy wmuksowane należy wybrać w odtwarzaczu

Video
ID : 1
Format : AVC
Format/Info : Advanced Video Codec
Format profile : Main@L3.1
Format settings : CABAC / 3 Ref Frames
Format settings, CABAC : Yes
Format settings, Reference frames : 3 frames
Codec ID : V_MPEG4/ISO/AVC
Duration : 39 min 28 s
Bit rate mode : Variable
Bit rate : 4 420 kb/s
Maximum bit rate : 6 630 kb/s
Width : 1 280 pixels
Height : 720 pixels
Display aspect ratio : 16:9
Frame rate mode : Constant
Frame rate : 23.976 (24000/1001) FPS
Color space : YUV
Chroma subsampling : 4:2:0
Bit depth : 8 bits
Scan type : Progressive
Bits/(Pixel*Frame) : 0.200
Stream size : 1.20 GiB (87%)
Writing libra
[...]

»[Zobacz cały opis

==Torrent==
Kategoria: TV/Seriale » Dokumentalny


Dodał: Jordan-83
Data dodania:
2020-07-10 09:01:19
Rozmiar: 1.56 GB
Seedów: 46
Peerów: 26
Pobrano: 58 razy

Komentarze: 0


...( Info )...

Produkcja: USA
Gatunek: Dokumentalny
Platforma: Apple TV+
Premiera: 10 lipiec 2020

...( Opis )...

Niezliczone historie największych sportowców na świecie, w których każdy odcinek analizuje kluczowy moment, który określa karierę sportowca.

...( Dane Techniczne )...

Napisy wmuksowane należy wybrać w odtwarzaczu

Video
ID : 1
Format : AVC
Format/Info : Advanced Video Codec
Format profile : High@L3.1
Format settings : CABAC / 5 Ref Frames
Format settings, CABAC : Yes
Format settings, Reference frames : 5 frames
Codec ID : V_MPEG4/ISO/AVC
Duration : 7 min 43 s
Bit rate : 3 902 kb/s
Width : 1 280 pixels
Height : 720 pixels
Display aspect ratio : 16:9
Frame rate mode : Constant
Frame rate : 23.976 (24000/1001) FPS
Color space : YUV
Chroma subsampling : 4:2:0
Bit depth : 8 bits
Scan type : Progressive
Bits/(Pixel*Frame) : 0.177
Stream size : 216 MiB (83%)
Language : English
Default : Yes
Forced : No
Color range : Limited
Color primar
[...]

»[Zobacz cały opis

==Torrent==
Kategoria: TV/Seriale » Dokumentalny


Dodał: Jordan-83
Data dodania:
2020-07-10 09:01:16
Rozmiar: 3.57 GB
Seedów: 0
Peerów: 0
Pobrano: 16 razy

Komentarze: 0


...( Info )...

Produkcja: USA
Gatunek: Dokumentalny
Platforma: Apple TV+
Premiera: 10 lipiec 2020

...( Opis )...

Niezliczone historie największych sportowców na świecie, w których każdy odcinek analizuje kluczowy moment, który określa karierę sportowca.

...( Dane Techniczne )...

Napisy wmuksowane należy wybrać w odtwarzaczu

Video
ID : 1
Format : AVC
Format/Info : Advanced Video Codec
Format profile : High@L4
Format settings : CABAC / 4 Ref Frames
Format settings, CABAC : Yes
Format settings, Reference frames : 4 frames
Codec ID : V_MPEG4/ISO/AVC
Duration : 7 min 43 s
Bit rate : 9 842 kb/s
Width : 1 920 pixels
Height : 1 080 pixels
Display aspect ratio : 16:9
Frame rate mode : Constant
Frame rate : 23.976 (24000/1001) FPS
Color space : YUV
Chroma subsampling : 4:2:0
Bit depth : 8 bits
Scan type : Progressive
Bits/(Pixel*Frame) : 0.198
Stream size : 544 MiB (93%)
Language : English
Default : Yes
Forced : No
Color range : Limited
Color primar
[...]

»[Zobacz cały opis

==Torrent==
Kategoria: TV/Seriale » Dokumentalny


Dodał: Hytry1
Data dodania:
2020-07-09 14:12:15
Rozmiar: 738.43 MB
Seedów: 131
Peerów: 12
Pobrano: 92 razy

Komentarze: 0


..::(Info)::..

*Gatunek filmu: Dokumentalny
*Kraj produkcji: USA
*Data premiery:
*Czas trwania filmu:
*Reżyseria:

..::(Opis)::..

Naukowcy, szukając śladów życia pozaziemskiego, postanawiają bliżej się przyjrzeć temu, co ukryte jest pod ziemią. Skinwalker Ranch słynie z częstych obserwacji UFO i wyjątkowej aktywności paranormalnej.

..::(Dane Techniczne)::..

Format : AVI at 2.602 kb/s
Length : 757 MiB for 40 min 40s 760 ms

Video #0 : MPEG-4 Visual at 2.400 kb/s
Aspect : 854 x 480 (1.779) at 25.000 fps

Audio #0 : AC-3 at 192 kb/s
Infos : 2 kanały, 44,1 kHz

==Torrent==
Kategoria: TV/Seriale » Dokumentalny


Dodał: Jordan-83
Data dodania:
2020-07-07 18:43:38
Rozmiar: 1.70 GB
Seedów: 0
Peerów: 0
Pobrano: 46 razy

Komentarze: 0


...( Info )...

Produkcja: USA
Gatunek: Dokument, Kryminał
Platforma: Netflix
Premiera: 26 lutego 2020

...( Opis )...

Po brutalnym morderstwie chłopca rozpoczyna się proces jego opiekunów i pracowników społecznych. Rodzą się pytania o systemową ochronę dzieci narażonych na przemoc.

...( Dane Techniczne )...

Format : MPEG-4 at 960 kb/s
Length : 325 MiB for 47 min 19s 254 ms

Video #0 : AVC at 827 kb/s
Aspect : 1280 x 720 (1.778) at 23.976 fps

Audio #0 : AAC at 128 kb/s
Infos : 2 kanały, 48,0 kHz
Language : pl

==Torrent==
Kategoria: TV/Seriale » Dokumentalny


Dodał: Jordan-83
Data dodania:
2020-07-04 17:13:29
Rozmiar: 1.74 GB
Seedów: 343
Peerów: 122
Pobrano: 140 razy

Komentarze: 0


...( Info )...

Produkcja: USA
Gatunek: Dokumentalny
Twórca: Lisa Bryant
Platforma: Netflix
Premiera: 27 maja 2020

...( Opis )...

Serial dokumentalny przybliżający historie ofiar Jeffreya Epsteina i pokazujący, jak ten przestępca seksualny używał fortuny i wpływów w swojej potwornej działalności.

...( Dane Techniczne )...

Format : MPEG-4 at 1.114 kb/s
Length : 452 MiB for 56 min 45s 846 ms

Video #0 : AVC at 980 kb/s
Aspect : 1280 x 720 (1.778) at 23.976 fps

Audio #0 : AAC at 132 kb/s
Infos : 2 kanały, 48,0 kHz

Przeglądaj
1 - 50 | 51 - 100 | 101 - 150 | ... | 701 - 750 | 751 - 800 | 801 - 837
<< Poprzednia      Następna >>
NAJCZĘŚCIEJ POBIERANE