Kategorie
Ranking
RSS
Hosting zapewnia

Google+
Programy

Statystyki
Użytkowników:
Zarejestrowanych wczoraj:
Zarejestrowanych dzisiaj:
Torrentów:
Dodanych wczoraj:
Dodanych dzisiaj:
Warezów:
Dodanych wczoraj:
Dodanych dzisiaj:
80,314
66
8
170,024
102
19
5,814
6
0
Ostatnie 30
Popularne
w Lutym
Przeglądaj
<< Poprzednia      Następna >>
1 - 50 | 51 - 100 | 101 - 150 | ... | 1101 - 1150 | 1151 - 1200 | 1201 - 1201
Gatunki
Show/Hide [Pokaż/Ukryj]
Po kliknięciu ”Pokaż/Ukryj” możesz wyszukać pozycję z wybranymi gatunkami
(Pamiętaj że np. filmy mogą mieć więcej niż jeden gatunek)

Wybrane gatunki z kategorii: TV/Seriale

Historyczny (1223),
==Torrent==
Kategoria: TV/Seriale » Dramat historyczny


Dodał: Hytry1
Data dodania:
2018-02-16 11:44:01
Rozmiar: 1.12 GB
Seedów: 475
Peerów: 979
Pobrano: 334 razy

Komentarze: 0


..::(Info)::..

*Kraj produkcji: Polska
*Gatunek filmu: Historyczny
*Data premiery: 2017
*Czas trwania filmu: 28 min
*Reżyseria: Wojciech Pacyna

..::(Opis)::..

Kraków, 1326 r. Król Władysław Łokietek marzy o zjednoczeniu ziem polskich. Planuje zaatakować Płock, by osłabić sojusz Mazowsza z Krzyżakami. Sytuację zmienia pojawienie się na Wawelu rycerza Pełki. Uciekł on z niewoli wielkiego księcia Litwy Giedymina i prosi władcę o ratunek dla uwięzionych. Król postanawia zawrzeć z Litwą sojusz, dzięki małżeństwu swojego syna Kazimierza z córką Giedymina, Aldoną. Mimo że dziewczyna darzy uczuciem innego, ulega woli ojca. W tym celu przybywa do Polski i przyjmuje chrzest, na którym dostaje imię Anna. Królowa Jadwiga okazuje przyszłej synowej niechęć.

..::(Obsada)::..

*Mateusz Król jako Kazimierz III Wielki
*Halina Łabonarska jako Jadwiga Bolesławówna
*Wiesław Wójcik jako król Władysław I Łokietek
*Marta Bryła jako Aldona Anna Giedyminówna

..::(Dane Techniczne)::..

[...]

»[Zobacz cały opis

==Torrent==
Kategoria: TV/Seriale » Dramat historyczny


Dodał: mireczek19
Data dodania:
2018-02-09 09:13:11
Rozmiar: 6.00 GB
Seedów: 518
Peerów: 385
Pobrano: 215 razy

Komentarze: 0


...( Info )...

Produkcja: USA
Gatunek: Przygodowy, Dramat historyczny
Premiera: 06.12.2017
Muzyka: Array
Zdjęcia: Chris Manley
[E01-E10][Pełny sezon][Serial TV]

...( O filmie )...

http://www.filmweb.pl/serial/Templariusze-2017-765492
http://www.imdb.com/title/tt4555364/
https://fdb.pl/film/774352-templariusze

...( Opis )...

Akcja serialu Templariusze rozpoczyna się tuż po upadku Akki, ostatniego bastionu templariuszy w Ziemi Świętej, gdzie Święty Graal ginie w zagadkowych okolicznościach. Wiele lat później pojawiają się wskazówki, które sugerują, gdzie może znajdować się Graal. Szlachetnie urodzony, odważny i uparty członek zakonu templariuszy rycerz Landry (Tom Cullen - seriale „Dowtown Abbey”, „Gunpowder”) wysyła grupę braci na śmiertelnie niebezpieczną misję, której celem jest odzyskanie zaginionego kielicha.

...( Obsada )...

★ Tom Cullen .... Landry
★ Bobby Schofield .... Parsifal
★ Sabrina Bartlett .... Księżniczka Izabela
★ Julian Ovenden .... De
[...]

»[Zobacz cały opis

==Torrent==
Kategoria: TV/Seriale » Historyczny


Dodał: Hytry1
Data dodania:
2018-02-09 00:15:09
Rozmiar: 1.29 GB
Seedów: 416
Peerów: 161
Pobrano: 366 razy

Komentarze: 0


..::(Info)::..

*Kraj produkcji: Polska
*Gatunek filmu: Historyczny
*Data premiery: 2017
*Czas trwania filmu: 28 min
*Reżyseria: Wojciech Pacyna

..::(Opis)::..

Kraków, 1326 r. Król Władysław Łokietek marzy o zjednoczeniu ziem polskich. Planuje zaatakować Płock, by osłabić sojusz Mazowsza z Krzyżakami. Sytuację zmienia pojawienie się na Wawelu rycerza Pełki. Uciekł on z niewoli wielkiego księcia Litwy Giedymina i prosi władcę o ratunek dla uwięzionych. Król postanawia zawrzeć z Litwą sojusz, dzięki małżeństwu swojego syna Kazimierza z córką Giedymina, Aldoną. Mimo że dziewczyna darzy uczuciem innego, ulega woli ojca. W tym celu przybywa do Polski i przyjmuje chrzest, na którym dostaje imię Anna. Królowa Jadwiga okazuje przyszłej synowej niechęć.

..::(Obsada)::..

*Mateusz Król jako Kazimierz III Wielki
*Halina Łabonarska jako Jadwiga Bolesławówna
*Wiesław Wójcik jako król Władysław I Łokietek
*Marta Bryła jako Aldona Anna Giedyminówna

..::(Dane Techniczne)::..

[...]

»[Zobacz cały opis

==Torrent==
Kategoria: TV/Seriale » Historyczny


Dodał: Wilu75
Data dodania:
2018-02-08 23:09:28
Rozmiar: 717.65 MB
Seedów: 517
Peerów: 944
Pobrano: 368 razy

Komentarze: 0


Tytuł:Templariusze - Knightfall / Sezon 1 [2017] [Epizodów:10]
=========================================


==================
...::: INFO :::...
==================
Ocena:IMDB - 6.4/10 (1168), Filmweb - 6.1/10 (372)
Gatunek: Przygodowy, Dramat, Historyczny
Produkcja: USA
Stacja telewizyjna: History
Data premiery serialu: 06.12.2017 - Świat
Czas trwania odcinka około 42 min.
Reżyseria: David Petrarca
Scenariusz: Don Handfield, Richard Rayner, Dominic Minghella

==================
...::: OPIS :::...
==================
Akcja serialu zawiązuje się niedługo po upadku Akki, która stanowiła ostatni bastion zakonu templariuszy w Ziemi Świętej. W tym samym czasie w niewyjaśnionych okolicznościach ginie Święty Graal. Wiele lat po tych wydarzeniach pojawiają się nowe wskazówki, mogące pomóc w odnalezieniu tego bezcennego artefaktu. Mimo związanych z tym niebezpieczeństw rycerz Landry (Tom Cullen) - szlachetnie urodzony, odważny, a przy tym uparty członek zakonu - wysyła swoich b
[...]

»[Zobacz cały opis

==Torrent==
Kategoria: TV/Seriale » Historyczny


Dodał: Hytry1
Data dodania:
2018-02-08 14:46:35
Rozmiar: 1.02 GB
Seedów: 0
Peerów: 9
Pobrano: 182 razy

Komentarze: 0


..::(Info)::..

*Kraj produkcji: USA
*Gatunek filmu: Historyczny
*Data premiery: 2017
*Czas trwania filmu: 42 min
*Reżyseria: Douglas Mackinnon

..::(Opis)::..

Akcja serialu zawiązuje się niedługo po upadku Akki, która stanowiła ostatni bastion zakonu templariuszy w Ziemi Świętej. W tym samym czasie w niewyjaśnionych okolicznościach ginie Święty Graal. Wiele lat po tych wydarzeniach pojawiają się nowe wskazówki, mogące pomóc w odnalezieniu tego bezcennego artefaktu. Mimo związanych z tym niebezpieczeństw rycerz Landry (Tom Cullen) - szlachetnie urodzony, odważny, a przy tym uparty członek zakonu - wysyła swoich braci na poszukiwania zaginionego kielicha. Pozostali zakonnicy to m.in. Gawain (Pádraic Delaney), dawniej słynny szermierz, który został okaleczony w trakcie bitwy o Akkę, oraz Tancrede (Simon Merrells), lojalny rycerz, gotów poświęć wszystko dla swoich towarzyszy. Ich losy krzyżują się także z losami najpotężniejszych ludzi średniowiecznej Europy: papieża Boniface
[...]

»[Zobacz cały opis

==Torrent==
Kategoria: TV/Seriale » Dramat historyczny


Dodał: behemot
Data dodania:
2018-02-08 08:53:20
Rozmiar: 0.99 GB
Seedów: 1273
Peerów: 516
Pobrano: 456 razy

Komentarze: 0


...( Info )...

Info:

Templariusze - Knightfall
Epizodów 10 (Odc.10 - Do You See The Blue?) (FINAŁ)
Gatunek: Przygodowy, Dramat, Historyczny
Produkcja: USA
Stacja telewizyjna: HBO
Data premiery serialu: 06.12.2017
Reżyseria: David Petrarca
Scenariusz: Don Handfield, Richard Rayner, Dominic Minghella

Ocena FilmWEB: 6,5/10 (2.227)
Ocena IMDb: 6,4/10 (4.966)

...( O filmie )...

http://www.filmweb.pl/serial/Templariusze-2017-765492
http://www.imdb.com/title/tt4555364/

...( Opis )...

Porywający serial o templariuszach – najbardziej tajemniczym i wpływowym zakonie rycerskim czasów średniowiecza.Bohaterem jest przywódca zakonu templariuszy, Sir Landry, dzielny wojownik, który traci motywacje po porażkach w Ziemi Świętej. Jego wiara i siła powraca, gdy pojawiają się wieści o pojawieniu się Świętego Graala. W serialu zobaczymy, co doprowadziło do upadku zakonu i przedstawione zostaną wydarzenia z pechowego piątku trzynastego, które miały miejsce w paźdz
[...]

»[Zobacz cały opis

==Torrent==
Kategoria: TV/Seriale » Historyczny


Dodał: DarioDario64
Data dodania:
2018-02-05 20:28:22
Rozmiar: 1.05 GB
Seedów: 7
Peerów: 0
Pobrano: 36 razy

Komentarze: 0


...( Opis )...

Kazimierz pragnie wzmocnić swoje państwo, dlatego myśli o budowie nowych zamków. Egle ostrzega królową przed zdradą kogoś z jej bliskich, czym niepokoi Annę. Jadwiga z przyjaciółką planują odnaleźć Arunasa i w ten sposób pogrążyć Annę. Po powrocie na zamek, Katarzyna wypytuje kucharką litewską o rycerza z Litwy. Królowa pod wpływem przeczuć Egle oraz manipulacji Katarzyny wyrzuca Gabiję z dworu za plotkowanie na jej temat.

...( Dane Techniczne )...

General
Complete name : Korona Królów (2018) Odc. 22.mp4
Format : MPEG-4
File size : 1.05 GiB
Duration : 25 min 7 s
Overall bit rate : 5 971 kb/s

Video
ID : 1
Format : AVC
Duration : 25 min 7 s
Bit rate : 6 000 kb/s
Width : 1 920 pixels
Height : 1 080 pixels
Display aspect ratio : 16:9
Frame rate mode : Constant
Frame rate : 30.000 FPS
Stream size : 1.01 GiB (97%)
Writing library : x264 core 132
Audio
ID : 2
Format : AAC
Format profile : LC
Codec ID : 40
Duration : 25 min 7 s
Bit rate mode :
[...]

»[Zobacz cały opis

==Torrent==
Kategoria: TV/Seriale » Dramat historyczny


Dodał: Hytry1
Data dodania:
2018-02-02 17:55:02
Rozmiar: 347.40 MB
Seedów: 37
Peerów: 343
Pobrano: 324 razy

Komentarze: 0


..::(Info)::..

*Kraj produkcji: Polska
*Gatunek filmu: Historyczny
*Data premiery: 2017
*Czas trwania filmu: 28 min
*Reżyseria: Wojciech Pacyna

..::(Opis)::..

Kraków, 1326 r. Król Władysław Łokietek marzy o zjednoczeniu ziem polskich. Planuje zaatakować Płock, by osłabić sojusz Mazowsza z Krzyżakami. Sytuację zmienia pojawienie się na Wawelu rycerza Pełki. Uciekł on z niewoli wielkiego księcia Litwy Giedymina i prosi władcę o ratunek dla uwięzionych. Król postanawia zawrzeć z Litwą sojusz, dzięki małżeństwu swojego syna Kazimierza z córką Giedymina, Aldoną. Mimo że dziewczyna darzy uczuciem innego, ulega woli ojca. W tym celu przybywa do Polski i przyjmuje chrzest, na którym dostaje imię Anna. Królowa Jadwiga okazuje przyszłej synowej niechęć.

..::(Obsada)::..

*Mateusz Król jako Kazimierz III Wielki
*Halina Łabonarska jako Jadwiga Bolesławówna
*Wiesław Wójcik jako król Władysław I Łokietek
*Marta Bryła jako Aldona Anna Giedyminówna

..::(Dane Techniczne)::..

[...]

»[Zobacz cały opis

==Torrent==
Kategoria: TV/Seriale » Dramat historyczny


Dodał: Hytry1
Data dodania:
2018-02-01 21:39:23
Rozmiar: 1.02 GB
Seedów: 304
Peerów: 309
Pobrano: 396 razy

Komentarze: 2


..::(Info)::..

*Kraj produkcji: Polska
*Gatunek filmu: Historyczny
*Data premiery: 2017
*Czas trwania filmu: 28 min
*Reżyseria: Wojciech Pacyna

..::(Opis)::..

Kraków, 1326 r. Król Władysław Łokietek marzy o zjednoczeniu ziem polskich. Planuje zaatakować Płock, by osłabić sojusz Mazowsza z Krzyżakami. Sytuację zmienia pojawienie się na Wawelu rycerza Pełki. Uciekł on z niewoli wielkiego księcia Litwy Giedymina i prosi władcę o ratunek dla uwięzionych. Król postanawia zawrzeć z Litwą sojusz, dzięki małżeństwu swojego syna Kazimierza z córką Giedymina, Aldoną. Mimo że dziewczyna darzy uczuciem innego, ulega woli ojca. W tym celu przybywa do Polski i przyjmuje chrzest, na którym dostaje imię Anna. Królowa Jadwiga okazuje przyszłej synowej niechęć.

..::(Obsada)::..

*Mateusz Król jako Kazimierz III Wielki
*Halina Łabonarska jako Jadwiga Bolesławówna
*Wiesław Wójcik jako król Władysław I Łokietek
*Marta Bryła jako Aldona Anna Giedyminówna

..::(Dane Techniczne)::..

[...]

»[Zobacz cały opis

==Torrent==
Kategoria: TV/Seriale » Historyczny


Dodał: DarioDario64
Data dodania:
2018-02-01 20:31:19
Rozmiar: 1.37 GB
Seedów: 7
Peerów: 0
Pobrano: 54 razy

Komentarze: 0


...( Opis )...

Król chce zawrzeć rozejm z Brandenburgią. Popada przez to w kolejny konflikt z biskupem Grotem i pomimo braku wsparcia z jego strony, konsekwentnie dąży do celu. Kazimierz w podziękowaniu za zasługi, nadaje swoim doradcom tytuły: Jasiek zostaje mianowany kasztelanem małogojskim, a Niemierza ochmistrzem dworu. Jadwiga zaprasza do Sącza Katarzynę Pilecką, gdzie dużo rozmawiają o Annie. Elżbietka i Kundzia dorastają, są ciekawe świata, dlatego na polecenie ich matki Helena uczy je nowych umiejętności.

...( Dane Techniczne )...

General
Complete name : Korona Królów (2018) Odc. 21.mp4
Format : MPEG-4
File size : 1.37 GiB
Duration : 24 min 56 s
Overall bit rate : 7 852 kb/s

Video
ID : 1
Format : AVC
Duration : 24 min 56 s
Bit rate : 8 000 kb/s
Width : 1 920 pixels
Height : 1 080 pixels
Display aspect ratio : 16:9
Frame rate mode : Constant
Frame rate : 25.000 FPS
Writing library : x264 core 132

Audio
ID : 2
Format : AAC
Format profile : LC
Cod
[...]

»[Zobacz cały opis

==Torrent==
Kategoria: TV/Seriale » Historyczny


Dodał: Wilu75
Data dodania:
2018-02-01 20:05:45
Rozmiar: 608.23 MB
Seedów: 1965
Peerów: 1196
Pobrano: 623 razy

Komentarze: 2


Tytuł:Templariusze - Knightfall / Sezon 1 [2017] [Epizodów:10]
=========================================


==================
...::: INFO :::...
==================
Ocena:IMDB - 6.4/10 (1168), Filmweb - 6.1/10 (372)
Gatunek: Przygodowy, Dramat, Historyczny
Produkcja: USA
Stacja telewizyjna: History
Data premiery serialu: 06.12.2017 - Świat
Czas trwania odcinka około 42 min.
Reżyseria: David Petrarca
Scenariusz: Don Handfield, Richard Rayner, Dominic Minghella

==================
...::: OPIS :::...
==================
Akcja serialu zawiązuje się niedługo po upadku Akki, która stanowiła ostatni bastion zakonu templariuszy w Ziemi Świętej. W tym samym czasie w niewyjaśnionych okolicznościach ginie Święty Graal. Wiele lat po tych wydarzeniach pojawiają się nowe wskazówki, mogące pomóc w odnalezieniu tego bezcennego artefaktu. Mimo związanych z tym niebezpieczeństw rycerz Landry (Tom Cullen) - szlachetnie urodzony, odważny, a przy tym uparty członek zakonu - wysyła swoich b
[...]

»[Zobacz cały opis

==Torrent==
Kategoria: TV/Seriale » Historyczny


Dodał: Hytry1
Data dodania:
2018-02-01 19:36:13
Rozmiar: 838.84 MB
Seedów: 0
Peerów: 10
Pobrano: 105 razy

Komentarze: 0


..::(Info)::..

*Kraj produkcji: USA
*Gatunek filmu: Historyczny
*Data premiery: 2017
*Czas trwania filmu: 42 min
*Reżyseria: Douglas Mackinnon

..::(Opis)::..

Akcja serialu zawiązuje się niedługo po upadku Akki, która stanowiła ostatni bastion zakonu templariuszy w Ziemi Świętej. W tym samym czasie w niewyjaśnionych okolicznościach ginie Święty Graal. Wiele lat po tych wydarzeniach pojawiają się nowe wskazówki, mogące pomóc w odnalezieniu tego bezcennego artefaktu. Mimo związanych z tym niebezpieczeństw rycerz Landry (Tom Cullen) - szlachetnie urodzony, odważny, a przy tym uparty członek zakonu - wysyła swoich braci na poszukiwania zaginionego kielicha. Pozostali zakonnicy to m.in. Gawain (Pádraic Delaney), dawniej słynny szermierz, który został okaleczony w trakcie bitwy o Akkę, oraz Tancrede (Simon Merrells), lojalny rycerz, gotów poświęć wszystko dla swoich towarzyszy. Ich losy krzyżują się także z losami najpotężniejszych ludzi średniowiecznej Europy: papieża Boniface
[...]

»[Zobacz cały opis

==Torrent==
Kategoria: TV/Seriale » Dramat historyczny


Dodał: behemot
Data dodania:
2018-02-01 16:32:23
Rozmiar: 0.98 GB
Seedów: 1394
Peerów: 2075
Pobrano: 401 razy

Komentarze: 0


...( Info )...

Templariusze - Knightfall - Epizodów 10 (Odc.9 - Fiat!)
Gatunek: Przygodowy, Dramat, Historyczny
Produkcja: USA
Stacja telewizyjna: HBO
Data premiery serialu: 06.12.2017
Reżyseria: David Petrarca
Scenariusz: Don Handfield, Richard Rayner, Dominic Minghella

Ocena FilmWEB: 6,2/10 (829)
Ocena IMDb: 6,3/10 (2.440)

...( O filmie )...

http://www.filmweb.pl/serial/Templariusze-2017-765492
http://www.imdb.com/title/tt4555364/

...( Opis )...

Porywający serial o templariuszach – najbardziej tajemniczym i wpływowym zakonie rycerskim czasów średniowiecza.Bohaterem jest przywódca zakonu templariuszy, Sir Landry, dzielny wojownik, który traci motywacje po porażkach w Ziemi Świętej. Jego wiara i siła powraca, gdy pojawiają się wieści o pojawieniu się Świętego Graala. W serialu zobaczymy, co doprowadziło do upadku zakonu i przedstawione zostaną wydarzenia z pechowego piątku trzynastego, które miały miejsce w październiku 1307 roku.

...( Obsada )
[...]

»[Zobacz cały opis

==Torrent==
Kategoria: TV/Seriale » Historyczny


Dodał: DarioDario64
Data dodania:
2018-01-31 21:23:39
Rozmiar: 1.39 GB
Seedów: 7
Peerów: 14
Pobrano: 53 razy

Komentarze: 0


...( Opis )...

Dwór obiega wieść o ciąży królowej Anny. Jadwiga rozważa powrót na zamek, bije się z myślami, nie jest pewna decyzji jaką powinna podjąć. Kazimierz uczy Maćka władania mieczem. Młodzieniec przybył na zamek, kiedy podczas polowania w lesie król zaoferował mu pracę na dworze. Bardzo dobrze czują się w swoim towarzystwie. Kazimierz skazuje krewniaka biskupa Grota na ścięcie za przewinienia jakich się dopuścił.

...( Dane Techniczne )...

General
Complete name : Korona Królów (2018) Odc. 20.mp4
Format : MPEG-4
File size : 1.39 GiB
Duration : 25 min 12 s
Overall bit rate : 7 890 kb/s

Video
ID : 1
Format : AVC
Duration : 25 min 12 s
Bit rate : 8 000 kb/s
Width : 1 920 pixels
Height : 1 080 pixels
Display aspect ratio : 16:9
Frame rate mode : Constant
Frame rate : 25.000 FPS
Writing library : x264 core 132

Audio
ID : 2
Format : AAC
Format profile : LC
Codec ID : 40
Duration : 25 min 12 s
Bit rate mode : Constant
Bit rate : 192 kb/s
Channel(s)
[...]

»[Zobacz cały opis

==Torrent==
Kategoria: TV/Seriale » Historyczny


Dodał: DarioDario64
Data dodania:
2018-01-30 20:05:10
Rozmiar: 1.39 GB
Seedów: 7
Peerów: 1
Pobrano: 50 razy

Komentarze: 0


...( Opis )...

Kazimierz nabiera wątpliwości, czy dziecko, które nosi Anna na pewno jest jego. Małżonkowie szczerze rozmawiają o miłości, wierności i Arunasie. Król ufa ukochanej, dzięki czemu czuje się pewniej. Nadal okazuje radość z powodu ciąży Anny i nie przyjmuje do wiadomości, że może urodzić się córka. Królowa jest tym zaniepokojona, martwi się, że może rozczarować męża. Jadwidze dobrze robi pobyt w Sączu u klarysek, odpoczywa na łonie natury.

...( Dane Techniczne )...

General
Complete name : Korona Królów (2018) Odc. 19.mp4
Format : MPEG-4
File size : 1.39 GiB
Duration : 25 min 18 s
Overall bit rate : 7 877 kb/s

Video
ID : 1
Format : AVC
Duration : 25 min 18 s
Bit rate : 8 000 kb/s
Width : 1 920 pixels
Height : 1 080 pixels
Display aspect ratio : 16:9
Frame rate mode : Constant
Frame rate : 25.000 FPS
Writing library : x264 core 132

Audio
ID : 2
Format : AAC
Format profile : LC
Codec ID : 40
Duration : 25 min 18 s
Bit rate mode : Constant
B
[...]

»[Zobacz cały opis

==Torrent==
Kategoria: TV/Seriale » Historyczny


Dodał: DarioDario64
Data dodania:
2018-01-29 21:38:55
Rozmiar: 1.39 GB
Seedów: 7
Peerów: 0
Pobrano: 49 razy

Komentarze: 0


...( Opis )...

Jadwiga czuje, że syn nie liczy się jak dawniej z jej zdaniem, dlatego postanawia wyjechać do Sącza i wstąpić do klasztoru. Decyzja matki rozsierdza Kazimierza. Niczego nieświadomy król, zgadza się, aby na dworze w otoczeniu młodej królowej została Katarzyna. Anna jest wściekła, ma żal do męża, że nie dostrzega podstępnych zamiarów swojej matki. Kłócą się, ale wieść o ciąży szybko studzi negatywne emocje. Kazimierz jest bardzo szczęśliwy i wierzy, że Anna urodzi mu syna. Przekupka - żona skazanego za podrzucenie na dwór trucizny - Charcika, zbliża się do Garncarza. Planują wspólną przyszłość, na razie związaną ze wspólnym biznesem.

...( Dane Techniczne )...

General
Complete name : Korona Królów (2018) Odc. 18.mp4
Format : MPEG-4
File size : 1.39 GiB
Duration : 25 min 17 s
Overall bit rate : 7 880 kb/s

Video
ID : 1
Format : AVC
Duration : 25 min 17 s
Bit rate : 8 000 kb/s
Width : 1 920 pixels
Height : 1 080 pixels
Display aspect ratio : 16:9
Fram
[...]

»[Zobacz cały opis

==Torrent==
Kategoria: TV/Seriale » Historyczny


Dodał: Wilu75
Data dodania:
2018-01-29 18:43:36
Rozmiar: 598.37 MB
Seedów: 1
Peerów: 1241
Pobrano: 368 razy

Komentarze: 0


Tytuł:Templariusze - Knightfall / Sezon 1 [2017] [Epizodów:10]
=========================================


==================
...::: INFO :::...
==================
Ocena:IMDB - 6.4/10 (1168), Filmweb - 6.1/10 (372)
Gatunek: Przygodowy, Dramat, Historyczny
Produkcja: USA
Stacja telewizyjna: History
Data premiery serialu: 06.12.2017 - Świat
Czas trwania odcinka około 42 min.
Reżyseria: David Petrarca
Scenariusz: Don Handfield, Richard Rayner, Dominic Minghella

==================
...::: OPIS :::...
==================
Akcja serialu zawiązuje się niedługo po upadku Akki, która stanowiła ostatni bastion zakonu templariuszy w Ziemi Świętej. W tym samym czasie w niewyjaśnionych okolicznościach ginie Święty Graal. Wiele lat po tych wydarzeniach pojawiają się nowe wskazówki, mogące pomóc w odnalezieniu tego bezcennego artefaktu. Mimo związanych z tym niebezpieczeństw rycerz Landry (Tom Cullen) - szlachetnie urodzony, odważny, a przy tym uparty członek zakonu - wysyła swoich b
[...]

»[Zobacz cały opis

==Torrent==
Kategoria: TV/Seriale » Dramat historyczny


Dodał: mireczek19
Data dodania:
2018-01-29 14:05:12
Rozmiar: 6.13 GB
Seedów: 565
Peerów: 609
Pobrano: 223 razy

Komentarze: 0


...( Info )...

Gatunek: Akcja, Dramat historyczny
Produkcja: Irlandia, Kanada
Data premiery sezonu: 29.11.2017r.
Reżyseria: Ciaran Donnelly, Johan Renck...
Scenariusz: Michael Hirst
[Sezon:5] [E01-E10] [Serial TV]

...( Info )...

http://www.filmweb.pl/serial/Wikingowie-2013-659055/episodes#sezon5
http://www.imdb.com/title/tt2306299/episodes?season=5
https://fdb.pl/film/412613-wikingowie/episodes?season=5

...( Opis )...

Jeden z najlepszych seriali w historii powraca z kolejnym sezonem, który zapowiada się wyjątkowo krwawo i brutalnie. Sezon będzie składać się z 20 odcinków podzielonych na dwie tury emisji. W pierwszym rzucie zobaczymy 10 epizodów.

Piąty sezon zaczyna się od Iwara Bezkształtnego, który dowodzi jego przywództwem nad Wielką Armią Pogańską, podczas gdy Lagertha króluje jako Królowa Kattegata. Zamordowanie przez Ivara jego brata, Sigurda, przygotowuje scenę do okrutnych bitew, kiedy synowie Ragnara planują kolejne ruchy po pomszczeniu śmierci ojca. B
[...]

»[Zobacz cały opis

==Torrent==
Kategoria: TV/Seriale » Przygodowy


Dodał: Wilu75
Data dodania:
2018-01-26 17:55:52
Rozmiar: 663.53 MB
Seedów: 1551
Peerów: 2345
Pobrano: 522 razy

Komentarze: 0


Tytuł:Wikingowie - Vikings / Sezon 5 [2017] [Epizodów:20]
=============================


==================
...::: INFO :::...
==================
Ocena:IMDB - 8.6/10 (263458), Filmweb - 8.5/10 (115126)
Gatunek: Akcja, Dramat historyczny
Produkcja: Irlandia, Kanada
Data premiery serialu: 27 lutego 2014 (USA)
Czas trwania odcinka około 45 min.
Reżyseria: Ciaran Donnelly, Johan Renck, Ken Girotti
Scenariusz: Michael Hirst

==================
...::: OPIS :::...
==================
Dalsze losy dzielnych skandynawskich wojowników. Walcząc o panowanie nad światem, zawierają zaskakujące sojusze i dopuszczają się zdrad. Bezwzględny Ivar przejmuje dowództwo nad armią pogan. Morderstwo Sigurda prowadzi do serii krwawych bitew. Synowie Ragnara myślą nad kolejnymi działaniami mającymi na celu pomszczenie ojca. Bjorn podąża na Morze Śródziemne. Zrozpaczony po śmierci żony Floki wyrusza na morze, by poddać się woli bogów.

====================
...::: OBSADA :::...
==============
[...]

»[Zobacz cały opis

==Torrent==
Kategoria: TV/Seriale » Przygodowy


Dodał: Wilu75
Data dodania:
2018-01-26 17:53:11
Rozmiar: 1.44 GB
Seedów: 444
Peerów: 393
Pobrano: 253 razy

Komentarze: 0


Tytuł:Wikingowie - Vikings / Sezon 5 [2017] [Epizodów:20]
=============================


==================
...::: INFO :::...
==================
Ocena:IMDB - 8.6/10 (263458), Filmweb - 8.5/10 (115126)
Gatunek: Akcja, Dramat historyczny
Produkcja: Irlandia, Kanada
Data premiery serialu: 27 lutego 2014 (USA)
Czas trwania odcinka około 45 min.
Reżyseria: Ciaran Donnelly, Johan Renck, Ken Girotti
Scenariusz: Michael Hirst

==================
...::: OPIS :::...
==================
Dalsze losy dzielnych skandynawskich wojowników. Walcząc o panowanie nad światem, zawierają zaskakujące sojusze i dopuszczają się zdrad. Bezwzględny Ivar przejmuje dowództwo nad armią pogan. Morderstwo Sigurda prowadzi do serii krwawych bitew. Synowie Ragnara myślą nad kolejnymi działaniami mającymi na celu pomszczenie ojca. Bjorn podąża na Morze Śródziemne. Zrozpaczony po śmierci żony Floki wyrusza na morze, by poddać się woli bogów.

====================
...::: OBSADA :::...
==============
[...]

»[Zobacz cały opis

==Torrent==
Kategoria: TV/Seriale » Dramat historyczny


Dodał: behemot
Data dodania:
2018-01-25 22:42:08
Rozmiar: 956.08 MB
Seedów: 1008
Peerów: 487
Pobrano: 453 razy

Komentarze: 0


...( Info )...

Wikingowie / Vikings - Odc.10/20 - Moments of Vision
Gatunek: Akcja, Dramat historyczny
Produkcja: Irlandia, Kanada
Data premiery sezonu: 29.11.2017r.
Reżyseria: Ciaran Donnelly, Johan Renck...
Scenariusz: Michael Hirst

FilmWEB - 8.5/10 (119.660)
Ocena:IMDb - 8.6/10 (275.238)

...( O filmie )...

http://filmweb.pl/serial/Vikings-2013-659055
http://www.filmweb.pl/serial/Wikingowie-2013-659055/photos
http://imdb.com/title/tt2306299/

...( Opis )...

Serial Wikingowie przedstawia historię Ragnara Lothbroka, prawdziwej postaci i największego bohatera swoich czasów. Jest to saga o nim i jego rodzinie, która opowiada o tym, jak staje się królem wszystkich wikingów. Ragnar był także nieugiętym wojownikiem, który oddaje się tradycji wiary w bogów. Legenda głosi, że jest potomkiem Odyna, boga wojny.

...( Obsada )...

Alexander Ludwig...Bjørn "Żelaznoboki" Lothbrok
Katheryn Winnick...Lagertha Lothbrok
Clive Standen...Rollo
Gustaf Skar
[...]

»[Zobacz cały opis

==Torrent==
Kategoria: TV/Seriale » Akcja


Dodał: Norman11
Data dodania:
2018-01-25 22:38:12
Rozmiar: 956.39 MB
Seedów: 1368
Peerów: 177
Pobrano: 160 razy

Komentarze: 0


...( Info )...

Gatunek: Akcja, Dramat historyczny
Produkcja: Irlandia, Kanada
Stacja telewizyjna: History Channel
Data premiery serialu: 3 marca 2013 r. (USA)
Czas trwania odcinka około 45 min.
Reżyseria: Ciaran Donnelly, Johan Renck, Ken Girotti
Scenariusz: Michael Hirst

...( Opis )...

"Vikings" opowiada historię Ragnara Lothbroka oraz jego braci i rodziny. Serial ukazuje jak Ragnar staje się królem wikińskich plemion. Poza byciem nieustraszonym wojownikiem, Ragnar jest ucieleśnieniem nordyckiej tradycji i oddania się bogom. Legenda mówi, że jest on bezpośrednim potomkiem Odyna, boga wojny i wojowników.

...( Obsada )...

★ Travis Fimmel .... Ragnar Lothbrok
★ Katheryn Winnick .... Lagertha Lothbrok
★ Clive Standen .... Rollo
★ Jessalyn Gilsig .... Siggy Haraldson
★ Gustaf Skarsgård .... Floki
★ George Blagden .... Athelstan
★ Nathan O`Toole .... Młody Bjørn Lothbrok
★ Donal Logue .... Król Horik

...( Dane Techniczne )...

Release : Vik
[...]

»[Zobacz cały opis

==Torrent==
Kategoria: TV/Seriale » Dramat historyczny


Dodał: Hytry1
Data dodania:
2018-01-25 21:58:21
Rozmiar: 1.36 GB
Seedów: 708
Peerów: 507
Pobrano: 394 razy

Komentarze: 1


..::(Info)::..

*Kraj produkcji: Polska
*Gatunek filmu: Historyczny
*Data premiery: 2017
*Czas trwania filmu: 28 min
*Reżyseria: Wojciech Pacyna

..::(Opis)::..

Kraków, 1326 r. Król Władysław Łokietek marzy o zjednoczeniu ziem polskich. Planuje zaatakować Płock, by osłabić sojusz Mazowsza z Krzyżakami. Sytuację zmienia pojawienie się na Wawelu rycerza Pełki. Uciekł on z niewoli wielkiego księcia Litwy Giedymina i prosi władcę o ratunek dla uwięzionych. Król postanawia zawrzeć z Litwą sojusz, dzięki małżeństwu swojego syna Kazimierza z córką Giedymina, Aldoną. Mimo że dziewczyna darzy uczuciem innego, ulega woli ojca. W tym celu przybywa do Polski i przyjmuje chrzest, na którym dostaje imię Anna. Królowa Jadwiga okazuje przyszłej synowej niechęć.

..::(Obsada)::..

*Mateusz Król jako Kazimierz III Wielki
*Halina Łabonarska jako Jadwiga Bolesławówna
*Wiesław Wójcik jako król Władysław I Łokietek
*Marta Bryła jako Aldona Anna Giedyminówna

..::(Dane Techniczne)::..

[...]

»[Zobacz cały opis

==Torrent==
Kategoria: TV/Seriale » Historyczny


Dodał: DarioDario64
Data dodania:
2018-01-25 21:43:22
Rozmiar: 1.39 GB
Seedów: 7
Peerów: 0
Pobrano: 48 razy

Komentarze: 0


...( Opis )...

Na Wawelu pojawia się zaufany zmarłego króla - Władysława Łokietka - Grzegorz Nekanda, herbu Topór. Kazimierz przyjmuje go z otwartymi ramionami i pragnie, aby został marszałkiem dworu. Po koronacji Anna nabiera pewności siebie, chociaż martwią ją niecichnące plotki. Cudka próbuje ją pocieszyć, co dodaje nowej władczyni otuchy. Jadwiga zmuszona jest usunąć się w cień, co jest dla niej niełatwe. Uświadamia sobie, że może być zaborcza w stosunku do syna, ale nie zamierza znikać z jego życia. W odpowiednim momencie na dwór przybywa jej przyjaciółka Katarzyna, która staje się dla matki Kazimierza oparciem w trudnych chwilach. Arunas w klasztorze w Tyńcu przechodzi duchową przemianę - przyjmuje imię Szymon.

...( Dane Techniczne )...

General
Complete name : Korona Królów (2018) Odc. 17.mp4
Format : MPEG-4
File size : 1.39 GiB
Duration : 25 min 15 s
Overall bit rate : 7 881 kb/s

Video
ID : 1
Format/Info : Advanced Video Codec
Duration : 25 min 15 s
Bit rat
[...]

»[Zobacz cały opis

==Torrent==
Kategoria: TV/Seriale » Dramat historyczny


Dodał: Heisenberg
Data dodania:
2018-01-25 15:12:11
Rozmiar: 1.01 GB
Seedów: 9112
Peerów: 3100
Pobrano: 72 razy

Komentarze: 0


...( Info )...

Produkcja: Irlandia, Kanada
Gatunek: Dramat historyczny
Twórca: Michael Hirst
Zdjęcia: John S. Bartley
Muzyka: Trevor Morris

...( O filmie )...

YouTube - Trailer
https://www.youtube.com/watch?v=Ts_8uk1ddJI

...( Opis )...

XI wiek. Młody wojownik Ragnar Lothbrok (Travis Fimmel) służy jarlowi Earlowi Haraldsonowi (Gabriel Byrne). Mężczyzna pragnie zdobyć nieodkryte jak dotąd przez wikingów ziemie na zachodzie. Nie podobają mu się decyzje podejmowane przez wodza, który co roku wysyła swoich podwładnych na rabunkowe wyprawy do krain zamieszkałych przez Bałtów i Słowian. W jego działaniach wspierają go oddany przyjaciel, rzemieślnik Floki (Gustaf Skarsgard), brat Rollo (Clive Standen) oraz żona Lagertha (Katheryn Winnick). Oparta na faktach historia owianego legendą nordyckiego wodza.

Ragnar udaje się do Gotlandii, aby zakończyć konflikt o sporną ziemię. Rozpoczyna negocjacje z jarlem Borgiem. Ambitny i kierowany zazdrością Rollo staje przeciwko Lothbrok
[...]

»[Zobacz cały opis

==Torrent==
Kategoria: TV/Seriale » Dramat historyczny


Dodał: Hytry1
Data dodania:
2018-01-25 14:15:12
Rozmiar: 803.00 MB
Seedów: 728
Peerów: 134
Pobrano: 355 razy

Komentarze: 0


..::(Info)::..

*Kraj produkcji: USA
*Gatunek filmu: Historyczny
*Data premiery: 2017
*Czas trwania filmu: 42 min
*Reżyseria: Douglas Mackinnon

..::(Opis)::..

Akcja serialu zawiązuje się niedługo po upadku Akki, która stanowiła ostatni bastion zakonu templariuszy w Ziemi Świętej. W tym samym czasie w niewyjaśnionych okolicznościach ginie Święty Graal. Wiele lat po tych wydarzeniach pojawiają się nowe wskazówki, mogące pomóc w odnalezieniu tego bezcennego artefaktu. Mimo związanych z tym niebezpieczeństw rycerz Landry (Tom Cullen) - szlachetnie urodzony, odważny, a przy tym uparty członek zakonu - wysyła swoich braci na poszukiwania zaginionego kielicha. Pozostali zakonnicy to m.in. Gawain (Pádraic Delaney), dawniej słynny szermierz, który został okaleczony w trakcie bitwy o Akkę, oraz Tancrede (Simon Merrells), lojalny rycerz, gotów poświęć wszystko dla swoich towarzyszy. Ich losy krzyżują się także z losami najpotężniejszych ludzi średniowiecznej Europy: papieża Bonifaceg
[...]

»[Zobacz cały opis

==Torrent==
Kategoria: TV/Seriale » Dramat historyczny


Dodał: behemot
Data dodania:
2018-01-25 11:25:46
Rozmiar: 999.49 MB
Seedów: 647
Peerów: 202
Pobrano: 509 razy

Komentarze: 0


...( Info )...

Templariusze - Knightfall - Epizodów 10 (Odc.8 - IV)
Gatunek: Przygodowy, Dramat, Historyczny
Produkcja: USA
Stacja telewizyjna: HBO
Data premiery serialu: 06.12.2017
Reżyseria: David Petrarca
Scenariusz: Don Handfield, Richard Rayner, Dominic Minghella

Ocena FilmWEB: 6,2/10 (829)
Ocena IMDb: 6,3/10 (2.440)

...( O filmie )...

http://www.filmweb.pl/serial/Templariusze-2017-765492
http://www.imdb.com/title/tt4555364/

...( Opis )...

Porywający serial o templariuszach – najbardziej tajemniczym i wpływowym zakonie rycerskim czasów średniowiecza.Bohaterem jest przywódca zakonu templariuszy, Sir Landry, dzielny wojownik, który traci motywacje po porażkach w Ziemi Świętej. Jego wiara i siła powraca, gdy pojawiają się wieści o pojawieniu się Świętego Graala. W serialu zobaczymy, co doprowadziło do upadku zakonu i przedstawione zostaną wydarzenia z pechowego piątku trzynastego, które miały miejsce w październiku 1307 roku.

...( Obsada )..
[...]

»[Zobacz cały opis

==Torrent==
Kategoria: TV/Seriale » Dramat historyczny


Dodał: kempes84
Data dodania:
2018-01-25 09:28:53
Rozmiar: 215.32 MB
Seedów: 42
Peerów: 61
Pobrano: 18 razy

Komentarze: 0


...( Info )...

Gatunek: Akcja, Dramat historyczny
Produkcja: Irlandia, Kanada
Stacja telewizyjna: History Channel
Czas trwania odcinka około 45 min.
Reżyseria: Ciaran Donnelly, Johan Renck, Ken Girotti
Scenariusz: Michael Hirst

...( Opis )...

"Vikings" opowiada historię Ragnara Lothbroka oraz jego braci i rodziny. Serial ukazuje jak Ragnar staje się królem wikińskich plemion. Poza byciem nieustraszonym wojownikiem, Ragnar jest ucieleśnieniem nordyckiej tradycji i oddania się bogom. Legenda mówi, że jest on bezpośrednim potomkiem Odyna, boga wojny i wojowników.


...( Obsada )...

Travis Fimmel............ - Ragnar Lothbrok
Katheryn Winnick......... - Lagertha Lothbrok
Clive Standen............ - Rollo
Jessalyn Gilsig.......... - Siggy Haraldson
Gustaf Skarsgård......... - Floki
George Blagden........... - Athelstan
Nathan O`Toole........... - Młody Bjørn Lothbrok
Donal Logue.............. - Król Horik


...( Dane Techniczne )...

Format:
[...]

»[Zobacz cały opis

==Torrent==
Kategoria: TV/Seriale » Historyczny


Dodał: DarioDario64
Data dodania:
2018-01-25 02:37:32
Rozmiar: 1.37 GB
Seedów: 7
Peerów: 0
Pobrano: 49 razy

Komentarze: 0


...( Opis )...

Trwają przygotowania do uroczystości koronacji. Jadwiga oskarża synową o zdradę i szuka potwierdzenia wśród osób, które na co dzień są najbliżej Anny. Księżniczka przyznaje się do spotkania z litewskim rycerzem, twierdząc, że musiała rozliczyć się z przeszłością. Kazimierz jest zły na żonę, ale ufa jej i wybacza. Arunas opuszcza Wawel i postanawia wstąpić do klasztoru. Cały dwór huczy od plotek, ale pomimo tego ceremonia przebiega bez zakłóceń. Anna u boku Kazimierza, z dumą zakłada koronę.

...( Dane Techniczne )...

General
Complete name : Korona Królów (2018) Odc. 16.mp4
Format : MPEG-4
File size : 1.37 GiB
Duration : 24 min 46 s
Overall bit rate : 7 897 kb/s

Video
ID : 1
Format : AVC
Duration : 24 min 46 s
Bit rate : 8 000 kb/s
Width : 1 920 pixels
Height : 1 080 pixels
Display aspect ratio : 16:9
Frame rate mode : Constant
Frame rate : 30.000 FPS
Stream size : 1.33 GiB (97%)
Writing library : x264 core 132

Audio
ID : 2
Format : AAC
F
[...]

»[Zobacz cały opis

==Torrent==
Kategoria: TV/Seriale » Historyczny


Dodał: DarioDario64
Data dodania:
2018-01-23 21:25:12
Rozmiar: 1.38 GB
Seedów: 6
Peerów: 0
Pobrano: 52 razy

Komentarze: 0


...( Opis )...

Na dworze trwają przygotowania do koronacji Kazimierza i Anny. Powoli zjeżdżają się zaproszeni goście. Wraz z drugim bratem Anny, Kiejstutem pojawia się jej młodzieńcza miłość – Arunas. Podczas wspólnej uczty, Jadwiga dostrzega ich wzajemne spojrzenia. Przyszła królowa widzi się z chłopakiem na osobności, o czym nikt poza Olgierdem nic nie wie.

...( Dane Techniczne )...

General
Complete name : Korona Królów (2018) Odc. 15.mp4
Format : MPEG-4
File size : 1.38 GiB
Duration : 25 min 8 s
Overall bit rate : 7 875 kb/s

Video
ID : 1
Format : AVC
Duration : 25 min 8 s
Bit rate : 8 000 kb/s
Width : 1 920 pixels
Height : 1 080 pixels
Display aspect ratio : 16:9
Frame rate mode : Constant
Frame rate : 25.000 FPS
Stream size : 1.35 GiB (97%)
Writing library : x264 core 132

Audio
ID : 2
Format : AAC
Format profile : LC
Duration : 25 min 8 s
Bit rate mode : Constant
Bit rate : 192 kb/s
Channel(s) : 2 channels
Channel positions : Front: L R
Samp
[...]

»[Zobacz cały opis

==Torrent==
Kategoria: TV/Seriale » Historyczny


Dodał: DarioDario64
Data dodania:
2018-01-22 21:00:45
Rozmiar: 1.39 GB
Seedów: 7
Peerów: 14
Pobrano: 60 razy

Komentarze: 0


...( Opis )...

Kazimierz uparcie nie chce się zgodzić na wojnę z Krzyżakami, bardzo mu zależy na bezpieczeństwie Królestwa Polskiego. Jego pokojowe stanowisko popiera kasztelan krakowski Spytek z Melsztyna, który jako jedyny rozumie strategię przyszłego króla. Innego zdania jest biskup krakowski Grot, który uważa, że wojna to jedyne słuszne rozwiązanie. Relacja między Kazimierzem a biskupem staje się coraz bardziej napięta.

...( Dane Techniczne )...

Format : MPEG-4
File size : 1.39 GiB
Duration : 25 min 10 s
Overall bit rate : 7 882 kb/s

Video
ID : 1
Format : AVC
Duration : 25 min 10 s
Bit rate : 8 000 kb/s
Width : 1 920 pixels
Height : 1 080 pixels
Display aspect ratio : 16:9
Frame rate mode : Constant
Frame rate : 25.000 FPS
Writing library : x264 core 132

Audio
ID : 2
Format : AAC
Format profile : LC
Codec ID : 40
Duration : 25 min 10 s
Bit rate mode : Constant
Bit rate : 192 kb/s
Channel(s) : 2 channels
Channel positions : Front: L R
Sampling
[...]

»[Zobacz cały opis

==Torrent==
Kategoria: TV/Seriale » Historyczny


Dodał: Hytry1
Data dodania:
2018-01-20 12:35:36
Rozmiar: 620.10 MB
Seedów: 3
Peerów: 3
Pobrano: 109 razy

Komentarze: 0


..::(Info)::..

*Kraj produkcji: Francja
*Gatunek filmu: Kostiumowy
*Data premiery: 2011
*Czas trwania filmu: 51 min
*Reżyseria: Arnaud Sélignac

..::(Opis)::..

Francja, rok 1743. Europa pogrążona jest w wojnie. Trwa walka o sukcesję austriacką. Wkrótce umiera stary markiz de Valcourt, zostawiając niemałą fortunę. Wszystko wskazuje na to, że spadkobiercą zostanie jego syn Filip de Valcourt (Jean-Hugues Anglade) - intrygant i utracjusz. Tymczasem markiz przepisuje cały majątek córce z nieprawego łoża, Jolannie de Valcourt (Mylene Jampanoi)

..::(Obsada)::..

*Mylene Jampanoi jako Jolanne de Valcourt
*Pascal Demolon jako Laroche
*Rémi Bichet jako Craig Walker
*Jean-Hugues Anglade jako Philippe de Valcourt

..::(Dane Techniczne)::..

Format : MPEG-4 at 1.861 kb/s
Length : 690 MiB for 51 min 50s 475 ms

Video #0 : AVC at 1.750 kb/s
Aspect : 800 x 450 (1.778) at 25.000 fps

Audio #0 : AAC at 96,0 kb/s
Infos : 2 kanały, 44,1 kHz

==Torrent==
Kategoria: TV/Seriale » Historyczny


Dodał: Wilu75
Data dodania:
2018-01-19 16:54:39
Rozmiar: 591.93 MB
Seedów: 549
Peerów: 355
Pobrano: 408 razy

Komentarze: 0


Tytuł:Templariusze - Knightfall / Sezon 1 [2017] [Epizodów:10]
=========================================


==================
...::: INFO :::...
==================
Ocena:IMDB - 6.4/10 (1168), Filmweb - 6.1/10 (372)
Gatunek: Przygodowy, Dramat, Historyczny
Produkcja: USA
Stacja telewizyjna: History
Data premiery serialu: 06.12.2017 - Świat
Czas trwania odcinka około 42 min.
Reżyseria: David Petrarca
Scenariusz: Don Handfield, Richard Rayner, Dominic Minghella

==================
...::: OPIS :::...
==================
Akcja serialu zawiązuje się niedługo po upadku Akki, która stanowiła ostatni bastion zakonu templariuszy w Ziemi Świętej. W tym samym czasie w niewyjaśnionych okolicznościach ginie Święty Graal. Wiele lat po tych wydarzeniach pojawiają się nowe wskazówki, mogące pomóc w odnalezieniu tego bezcennego artefaktu. Mimo związanych z tym niebezpieczeństw rycerz Landry (Tom Cullen) - szlachetnie urodzony, odważny, a przy tym uparty członek zakonu - wysyła swoich b
[...]

»[Zobacz cały opis

==Torrent==
Kategoria: TV/Seriale » Przygodowy


Dodał: Wilu75
Data dodania:
2018-01-19 16:51:53
Rozmiar: 656.45 MB
Seedów: 915
Peerów: 532
Pobrano: 518 razy

Komentarze: 0


Tytuł:Wikingowie - Vikings / Sezon 5 [2017] [Epizodów:20]
=============================


==================
...::: INFO :::...
==================
Ocena:IMDB - 8.6/10 (263458), Filmweb - 8.5/10 (115126)
Gatunek: Akcja, Dramat historyczny
Produkcja: Irlandia, Kanada
Data premiery serialu: 27 lutego 2014 (USA)
Czas trwania odcinka około 45 min.
Reżyseria: Ciaran Donnelly, Johan Renck, Ken Girotti
Scenariusz: Michael Hirst

==================
...::: OPIS :::...
==================
Dalsze losy dzielnych skandynawskich wojowników. Walcząc o panowanie nad światem, zawierają zaskakujące sojusze i dopuszczają się zdrad. Bezwzględny Ivar przejmuje dowództwo nad armią pogan. Morderstwo Sigurda prowadzi do serii krwawych bitew. Synowie Ragnara myślą nad kolejnymi działaniami mającymi na celu pomszczenie ojca. Bjorn podąża na Morze Śródziemne. Zrozpaczony po śmierci żony Floki wyrusza na morze, by poddać się woli bogów.

====================
...::: OBSADA :::...
==============
[...]

»[Zobacz cały opis

==Torrent==
Kategoria: TV/Seriale » Przygodowy


Dodał: Wilu75
Data dodania:
2018-01-19 16:48:45
Rozmiar: 1.44 GB
Seedów: 695
Peerów: 330
Pobrano: 369 razy

Komentarze: 1


Tytuł:Wikingowie - Vikings / Sezon 5 [2017] [Epizodów:20]
=============================


==================
...::: INFO :::...
==================
Ocena:IMDB - 8.6/10 (263458), Filmweb - 8.5/10 (115126)
Gatunek: Akcja, Dramat historyczny
Produkcja: Irlandia, Kanada
Data premiery serialu: 27 lutego 2014 (USA)
Czas trwania odcinka około 45 min.
Reżyseria: Ciaran Donnelly, Johan Renck, Ken Girotti
Scenariusz: Michael Hirst

==================
...::: OPIS :::...
==================
Dalsze losy dzielnych skandynawskich wojowników. Walcząc o panowanie nad światem, zawierają zaskakujące sojusze i dopuszczają się zdrad. Bezwzględny Ivar przejmuje dowództwo nad armią pogan. Morderstwo Sigurda prowadzi do serii krwawych bitew. Synowie Ragnara myślą nad kolejnymi działaniami mającymi na celu pomszczenie ojca. Bjorn podąża na Morze Śródziemne. Zrozpaczony po śmierci żony Floki wyrusza na morze, by poddać się woli bogów.

====================
...::: OBSADA :::...
==============
[...]

»[Zobacz cały opis

==Torrent==
Kategoria: TV/Seriale » Dramat historyczny


Dodał: behemot
Data dodania:
2018-01-19 08:13:24
Rozmiar: 987.79 MB
Seedów: 12
Peerów: 74
Pobrano: 287 razy

Komentarze: 0


...( Info )...

Wikingowie / Vikings - Odc.9/10 - A Simple Story
Gatunek: Akcja, Dramat historyczny
Odcinek z: History
Produkcja: Irlandia, Kanada
Data premiery sezonu: 29.11.2017r.
Reżyseria: Ciaran Donnelly, Johan Renck...
Scenariusz: Michael Hirst

FilmWEB - 8.5/10 (119.660)
Ocena:IMDb - 8.6/10 (275.238)

...( O filmie )...

http://filmweb.pl/serial/Vikings-2013-659055
http://www.filmweb.pl/serial/Wikingowie-2013-659055/photos
http://imdb.com/title/tt2306299/

...( Opis )...

Serial Wikingowie przedstawia historię Ragnara Lothbroka, prawdziwej postaci i największego bohatera swoich czasów. Jest to saga o nim i jego rodzinie, która opowiada o tym, jak staje się królem wszystkich wikingów. Ragnar był także nieugiętym wojownikiem, który oddaje się tradycji wiary w bogów. Legenda głosi, że jest potomkiem Odyna, boga wojny.

...( Obsada )...

Alexander Ludwig...Bjørn "Żelaznoboki" Lothbrok
Katheryn Winnick...Lagertha Lothbrok
Clive Standen...R
[...]

»[Zobacz cały opis

==Torrent==
Kategoria: TV/Seriale » Akcja


Dodał: Norman11
Data dodania:
2018-01-19 03:12:45
Rozmiar: 712.82 MB
Seedów: 1466
Peerów: 1400
Pobrano: 303 razy

Komentarze: 0


...( Info )...

Gatunek: Akcja, Dramat historyczny
Produkcja: Irlandia, Kanada
Stacja telewizyjna: History Channel
Data premiery serialu: 3 marca 2013 r. (USA)
Czas trwania odcinka około 45 min.
Reżyseria: Ciaran Donnelly, Johan Renck, Ken Girotti
Scenariusz: Michael Hirst

...( Opis )...

"Vikings" opowiada historię Ragnara Lothbroka oraz jego braci i rodziny. Serial ukazuje jak Ragnar staje się królem wikińskich plemion. Poza byciem nieustraszonym wojownikiem, Ragnar jest ucieleśnieniem nordyckiej tradycji i oddania się bogom. Legenda mówi, że jest on bezpośrednim potomkiem Odyna, boga wojny i wojowników.

...( Obsada )...

★ Travis Fimmel .... Ragnar Lothbrok
★ Katheryn Winnick .... Lagertha Lothbrok
★ Clive Standen .... Rollo
★ Jessalyn Gilsig .... Siggy Haraldson
★ Gustaf Skarsgård .... Floki
★ George Blagden .... Athelstan
★ Nathan O`Toole .... Młody Bjørn Lothbrok
★ Donal Logue .... Król Horik

...( Dane Techniczne )...

Release : Vi
[...]

»[Zobacz cały opis

==Torrent==
Kategoria: TV/Seriale » Historyczny


Dodał: Hytry1
Data dodania:
2018-01-18 22:39:48
Rozmiar: 1.35 GB
Seedów: 228
Peerów: 86
Pobrano: 400 razy

Komentarze: 0


..::(Info)::..

*Kraj produkcji: Polska
*Gatunek filmu: Historyczny
*Data premiery: 2017
*Czas trwania filmu: 28 min
*Reżyseria: Wojciech Pacyna

..::(Opis)::..

Kraków, 1326 r. Król Władysław Łokietek marzy o zjednoczeniu ziem polskich. Planuje zaatakować Płock, by osłabić sojusz Mazowsza z Krzyżakami. Sytuację zmienia pojawienie się na Wawelu rycerza Pełki. Uciekł on z niewoli wielkiego księcia Litwy Giedymina i prosi władcę o ratunek dla uwięzionych. Król postanawia zawrzeć z Litwą sojusz, dzięki małżeństwu swojego syna Kazimierza z córką Giedymina, Aldoną. Mimo że dziewczyna darzy uczuciem innego, ulega woli ojca. W tym celu przybywa do Polski i przyjmuje chrzest, na którym dostaje imię Anna. Królowa Jadwiga okazuje przyszłej synowej niechęć.

..::(Obsada)::..

*Mateusz Król jako Kazimierz III Wielki
*Halina Łabonarska jako Jadwiga Bolesławówna
*Wiesław Wójcik jako król Władysław I Łokietek
*Marta Bryła jako Aldona Anna Giedyminówna

..::(Dane Techniczne)::..

[...]

»[Zobacz cały opis

==Torrent==
Kategoria: TV/Seriale » Historyczny


Dodał: DarioDario64
Data dodania:
2018-01-18 21:52:45
Rozmiar: 1.37 GB
Seedów: 7
Peerów: 0
Pobrano: 67 razy

Komentarze: 0


...( Opis )...

Jadwiga za wszelką cenę próbuje nie dopuścić do koronacji Anny. Uważa, że synowa nie jest godna pełnienia królewskich funkcji i chce pozbyć się księżniczki z dworu. Kazimierz widząc smutek w oczach żony, zabiera ją na konną przejażdżkę po lesie. Anna czuje się szczęśliwa. W przydrożnej karczmie przyszły król zostaje rozpoznany, a poddani oddają mu hołd. Elżbietka, która dużo czasu spędza z babcią na modlitwach, postanawia pójść do klasztoru.

...( Dane Techniczne )...

General
Complete name : Korona Królów (2018) Odc. 13.mp4
Format : MPEG-4
File size : 1.37 GiB
Duration : 24 min 54 s
Overall bit rate : 7 893 kb/s

Video
ID : 1
Format : AVC
Duration : 24 min 54 s
Bit rate : 8 000 kb/s
Width : 1 920 pixels
Height : 1 080 pixels
Display aspect ratio : 16:9
Frame rate mode : Constant
Frame rate : 25.000 FPS
Writing library : x264 core 132

Audio
ID : 2
Format : AAC
Format profile : LC
Duration : 24 min 54 s
Bit rate mode : Constant
Bit rate :
[...]

»[Zobacz cały opis

==Torrent==
Kategoria: TV/Seriale » Historyczny


Dodał: Hytry1
Data dodania:
2018-01-18 13:18:31
Rozmiar: 822.11 MB
Seedów: 2
Peerów: 2
Pobrano: 293 razy

Komentarze: 0


..::(Info)::..

*Kraj produkcji: USA
*Gatunek filmu: Historyczny
*Data premiery: 2017
*Czas trwania filmu: 42 min
*Reżyseria: Douglas Mackinnon

..::(Opis)::..

Akcja serialu zawiązuje się niedługo po upadku Akki, która stanowiła ostatni bastion zakonu templariuszy w Ziemi Świętej. W tym samym czasie w niewyjaśnionych okolicznościach ginie Święty Graal. Wiele lat po tych wydarzeniach pojawiają się nowe wskazówki, mogące pomóc w odnalezieniu tego bezcennego artefaktu. Mimo związanych z tym niebezpieczeństw rycerz Landry (Tom Cullen) - szlachetnie urodzony, odważny, a przy tym uparty członek zakonu - wysyła swoich braci na poszukiwania zaginionego kielicha. Pozostali zakonnicy to m.in. Gawain (Pádraic Delaney), dawniej słynny szermierz, który został okaleczony w trakcie bitwy o Akkę, oraz Tancrede (Simon Merrells), lojalny rycerz, gotów poświęć wszystko dla swoich towarzyszy. Ich losy krzyżują się także z losami najpotężniejszych ludzi średniowiecznej Europy: papieża Bonifaceg
[...]

»[Zobacz cały opis

==Torrent==
Kategoria: TV/Seriale » Dramat historyczny


Dodał: behemot
Data dodania:
2018-01-18 11:15:39
Rozmiar: 903.22 MB
Seedów: 123
Peerów: 6
Pobrano: 467 razy

Komentarze: 0


...( Info )...

Templariusze - Knightfall - Odc.7 - And Certainly Not The Cripple
Gatunek: Przygodowy, Dramat, Historyczny
Produkcja: USA
Stacja telewizyjna: HBO
Data premiery serialu: 06.12.2017
Reżyseria: David Petrarca
Scenariusz: Don Handfield, Richard Rayner, Dominic Minghella

Ocena FilmWEB: 6,2/10 (829)
Ocena IMDb: 6,3/10 (2.440)

...( O filmie )...

http://www.filmweb.pl/serial/Templariusze-2017-765492
http://www.imdb.com/title/tt4555364/

...( Opis )...

Porywający serial o templariuszach – najbardziej tajemniczym i wpływowym zakonie rycerskim czasów średniowiecza.Bohaterem jest przywódca zakonu templariuszy, Sir Landry, dzielny wojownik, który traci motywacje po porażkach w Ziemi Świętej. Jego wiara i siła powraca, gdy pojawiają się wieści o pojawieniu się Świętego Graala. W serialu zobaczymy, co doprowadziło do upadku zakonu i przedstawione zostaną wydarzenia z pechowego piątku trzynastego, które miały miejsce w październiku 1307 roku.

...
[...]

»[Zobacz cały opis

==Torrent==
Kategoria: TV/Seriale » Dramat historyczny


Dodał: kempes84
Data dodania:
2018-01-18 10:37:36
Rozmiar: 197.57 MB
Seedów: 133
Peerów: 21
Pobrano: 31 razy

Komentarze: 0


...( Info )...

Gatunek: Akcja, Dramat historyczny
Produkcja: Irlandia, Kanada
Stacja telewizyjna: History Channel
Czas trwania odcinka około 45 min.
Reżyseria: Ciaran Donnelly, Johan Renck, Ken Girotti
Scenariusz: Michael Hirst

...( Opis )...

"Vikings" opowiada historię Ragnara Lothbroka oraz jego braci i rodziny. Serial ukazuje jak Ragnar staje się królem wikińskich plemion. Poza byciem nieustraszonym wojownikiem, Ragnar jest ucieleśnieniem nordyckiej tradycji i oddania się bogom. Legenda mówi, że jest on bezpośrednim potomkiem Odyna, boga wojny i wojowników.


...( Obsada )...

Travis Fimmel............ - Ragnar Lothbrok
Katheryn Winnick......... - Lagertha Lothbrok
Clive Standen............ - Rollo
Jessalyn Gilsig.......... - Siggy Haraldson
Gustaf Skarsgård......... - Floki
George Blagden........... - Athelstan
Nathan O`Toole........... - Młody Bjørn Lothbrok
Donal Logue.............. - Król Horik


...( Dane Techniczne )...

Format:
[...]

»[Zobacz cały opis

==Torrent==
Kategoria: TV/Seriale » Dramat historyczny


Dodał: Heisenberg
Data dodania:
2018-01-18 08:32:58
Rozmiar: 773.54 MB
Seedów: 6652
Peerów: 2378
Pobrano: 105 razy

Komentarze: 0


...( Info )...

Produkcja: Irlandia, Kanada
Gatunek: Dramat historyczny
Twórca: Michael Hirst
Zdjęcia: John S. Bartley
Muzyka: Trevor Morris

...( O filmie )...

YouTube - Trailer
https://www.youtube.com/watch?v=Ts_8uk1ddJI

...( Opis )...

XI wiek. Młody wojownik Ragnar Lothbrok (Travis Fimmel) służy jarlowi Earlowi Haraldsonowi (Gabriel Byrne). Mężczyzna pragnie zdobyć nieodkryte jak dotąd przez wikingów ziemie na zachodzie. Nie podobają mu się decyzje podejmowane przez wodza, który co roku wysyła swoich podwładnych na rabunkowe wyprawy do krain zamieszkałych przez Bałtów i Słowian. W jego działaniach wspierają go oddany przyjaciel, rzemieślnik Floki (Gustaf Skarsgard), brat Rollo (Clive Standen) oraz żona Lagertha (Katheryn Winnick). Oparta na faktach historia owianego legendą nordyckiego wodza.

Ragnar udaje się do Gotlandii, aby zakończyć konflikt o sporną ziemię. Rozpoczyna negocjacje z jarlem Borgiem. Ambitny i kierowany zazdrością Rollo staje przeciwko Lothbrok
[...]

»[Zobacz cały opis

==Torrent==
Kategoria: TV/Seriale » Historyczny


Dodał: DarioDario64
Data dodania:
2018-01-17 20:47:43
Rozmiar: 1.39 GB
Seedów: 5
Peerów: 0
Pobrano: 74 razy

Komentarze: 0


...( Opis )...

Cały dwór uczestniczy w uroczystościach wielkanocnych. Poruszające Misterium Paschalne skłania Annę do przemyśleń - wiara chrześcijańska staje się dla niej ważna. Wciąż rozpamiętuje dawnego ukochanego, dlatego szuka duchowej pomocy u swojego spowiednika - dominikanina Wojciecha. Kazimierz marzy o dziedzicu, a Anna czuje się w obowiązku dać mężowi syna. Wybranka Niemierzy - Cudka podkochuje się w przyszłym królu. Nie potrafi zapanować nad swoim uczuciem, co na dworze zaczynają dostrzegać inni.

...( Dane Techniczne )...

General
Complete name : Korona Królów (2018) Odc. 12.mp4
Format : MPEG-4
File size : 1.39 GiB
Duration : 25 min 15 s
Overall bit rate : 7 907 kb/s

Video
ID : 1
Format : AVC
Duration : 25 min 15 s
Bit rate : 8 000 kb/s
Width : 1 920 pixels
Height : 1 080 pixels
Display aspect ratio : 16:9
Frame rate mode : Constant
Frame rate : 25.000 FPS
Writing library : x264 core 132

Audio
ID : 2
Format : AAC
Format profile : LC
Codec ID
[...]

»[Zobacz cały opis

==Torrent==
Kategoria: TV/Seriale » Historyczny


Dodał: DarioDario64
Data dodania:
2018-01-16 20:19:00
Rozmiar: 1.39 GB
Seedów: 7
Peerów: 0
Pobrano: 83 razy

Komentarze: 0


...( Opis )...

Trwa Wielki Post. Córki Anny i Kazimierza ściśle go przestrzegają co doprowadza małą Elżbietkę do omdlenia. Powoduje to pierwszy otwarty konflikt między Jadwigą, a jej synową. Kazimierz udaje się na polowanie z Olgierdem, który próbuje mu dorównać. Obydwaj dobrze się bawią w swoim towarzystwie. W królewskich lasach spotykają polującego młodzieńca - Maćka. Przyszły król oszczędza mu kary i przyjmuje go do pracy na zamku. Anna cierpi z powodu samotności, która doskwiera jej na dworze. Jej dawna miłość z Litwy ma wkrótce odwiedzić Wawel.

...( Dane Techniczne )...

General
Complete name : Korona Królów (2018) Odc. 11.mp4
Format : MPEG-4
File size : 1.39 GiB
Duration : 25 min 11 s
Overall bit rate : 7 889 kb/s

Video
ID : 1
Format : AVC
Duration : 25 min 11 s
Bit rate : 8 000 kb/s
Width : 1 920 pixels
Height : 1 080 pixels
Display aspect ratio : 16:9
Frame rate mode : Constant
Frame rate : 25.000 FPS
Writing library : x264 core 132

Audio
ID : 2

[...]

»[Zobacz cały opis

==Torrent==
Kategoria: TV/Seriale » Historyczny


Dodał: DarioDario64
Data dodania:
2018-01-15 22:24:54
Rozmiar: 1.36 GB
Seedów: 6
Peerów: 0
Pobrano: 79 razy

Komentarze: 0


...( Opis )...

Na zamku trwają przygotowania do pogrzebu Władysława Łokietka. Jadwiga bardzo cierpi po stracie męża. Przyjeżdża królowa Elżbieta co powoduje zamieszanie na dworze. Kunegunda próbuje zniechęcić siostrę do Kazimierza i Anny, jednak Elżbieta broni brata i staje po jego stronie niczym matka. Jest bezwzględna w osądzie spiskowców węgierskich. Wraz z Kazimierzem skazuje ich na tortury i śmierć, za próbę otrucia rodziny królewskiej. W tle uroczystości pogrzebowych na dworze rozwija się pierwszy poważny romans. Zaufany króla – Niemierza zakochuje się w dwórce Anny – Cudce...

...( Dane Techniczne )...

Complete name : Korona Królów (2018) Odc. 10.mp4
Format : MPEG-4
File size : 1.36 GiB
Duration : 24 min 43 s
Overall bit rate : 7 905 kb/s

Video
Format : AVC
Duration : 24 min 43 s
Bit rate : 8 000 kb/s
Width : 1 920 pixels
Height : 1 080 pixels
Display aspect ratio : 16:9
Frame rate mode : Constant
Frame rate : 25.000 FPS
Writing library : x264 core 132

[...]

»[Zobacz cały opis

==Torrent==
Kategoria: TV/Seriale » Przygodowy


Dodał: Wilu75
Data dodania:
2018-01-12 17:56:16
Rozmiar: 651.28 MB
Seedów: 331
Peerów: 430
Pobrano: 555 razy

Komentarze: 0


Tytuł:Wikingowie - Vikings / Sezon 5 [2017] [Epizodów:20]
=============================


==================
...::: INFO :::...
==================
Ocena:IMDB - 8.6/10 (263458), Filmweb - 8.5/10 (115126)
Gatunek: Akcja, Dramat historyczny
Produkcja: Irlandia, Kanada
Data premiery serialu: 27 lutego 2014 (USA)
Czas trwania odcinka około 45 min.
Reżyseria: Ciaran Donnelly, Johan Renck, Ken Girotti
Scenariusz: Michael Hirst

==================
...::: OPIS :::...
==================
Dalsze losy dzielnych skandynawskich wojowników. Walcząc o panowanie nad światem, zawierają zaskakujące sojusze i dopuszczają się zdrad. Bezwzględny Ivar przejmuje dowództwo nad armią pogan. Morderstwo Sigurda prowadzi do serii krwawych bitew. Synowie Ragnara myślą nad kolejnymi działaniami mającymi na celu pomszczenie ojca. Bjorn podąża na Morze Śródziemne. Zrozpaczony po śmierci żony Floki wyrusza na morze, by poddać się woli bogów.

====================
...::: OBSADA :::...
==============
[...]

»[Zobacz cały opis

==Torrent==
Kategoria: TV/Seriale » Przygodowy


Dodał: Wilu75
Data dodania:
2018-01-12 17:52:43
Rozmiar: 1.44 GB
Seedów: 1558
Peerów: 3014
Pobrano: 379 razy

Komentarze: 0


Tytuł:Wikingowie - Vikings / Sezon 5 [2017] [Epizodów:20]
=============================


==================
...::: INFO :::...
==================
Ocena:IMDB - 8.6/10 (263458), Filmweb - 8.5/10 (115126)
Gatunek: Akcja, Dramat historyczny
Produkcja: Irlandia, Kanada
Data premiery serialu: 27 lutego 2014 (USA)
Czas trwania odcinka około 45 min.
Reżyseria: Ciaran Donnelly, Johan Renck, Ken Girotti
Scenariusz: Michael Hirst

==================
...::: OPIS :::...
==================
Dalsze losy dzielnych skandynawskich wojowników. Walcząc o panowanie nad światem, zawierają zaskakujące sojusze i dopuszczają się zdrad. Bezwzględny Ivar przejmuje dowództwo nad armią pogan. Morderstwo Sigurda prowadzi do serii krwawych bitew. Synowie Ragnara myślą nad kolejnymi działaniami mającymi na celu pomszczenie ojca. Bjorn podąża na Morze Śródziemne. Zrozpaczony po śmierci żony Floki wyrusza na morze, by poddać się woli bogów.

====================
...::: OBSADA :::...
==============
[...]

»[Zobacz cały opis

==Torrent==
Kategoria: TV/Seriale » Dramat historyczny


Dodał: behemot
Data dodania:
2018-01-12 08:45:37
Rozmiar: 748.74 MB
Seedów: 77
Peerów: 297
Pobrano: 284 razy

Komentarze: 0


...( Info )...

Wikingowie / Vikings - Odc.8/10 - The Joke
Gatunek: Akcja, Dramat historyczny
Produkcja: Irlandia, Kanada
Data premiery sezonu: 29.11.2017r.
Reżyseria: Ciaran Donnelly, Johan Renck...
Scenariusz: Michael Hirst

FilmWEB - 8.5/10 (117.045)
Ocena:IMDb - 8.6/10 (268.533)

...( O filmie )...

http://filmweb.pl/serial/Vikings-2013-659055
http://www.filmweb.pl/serial/Wikingowie-2013-659055/photos
http://imdb.com/title/tt2306299/

...( Opis )...

Serial Wikingowie przedstawia historię Ragnara Lothbroka, prawdziwej postaci i największego bohatera swoich czasów. Jest to saga o nim i jego rodzinie, która opowiada o tym, jak staje się królem wszystkich wikingów. Ragnar był także nieugiętym wojownikiem, który oddaje się tradycji wiary w bogów. Legenda głosi, że jest potomkiem Odyna, boga wojny.

...( Obsada )...

Alexander Ludwig...Bjørn "Żelaznoboki" Lothbrok
Katheryn Winnick...Lagertha Lothbrok
Clive Standen...Rollo
Gustaf Skarsgård...F
[...]

»[Zobacz cały opis

==Torrent==
Kategoria: TV/Seriale » Dramat historyczny


Dodał: behemot
Data dodania:
2018-01-12 08:10:35
Rozmiar: 954.32 MB
Seedów: 285
Peerów: 92
Pobrano: 251 razy

Komentarze: 0


...( Info )...

Wikingowie / Vikings - Odc.8/10 - The Joke
Gatunek: Akcja, Dramat historyczny
Odcinek z: History
Produkcja: Irlandia, Kanada
Data premiery sezonu: 29.11.2017r.
Reżyseria: Ciaran Donnelly, Johan Renck...
Scenariusz: Michael Hirst

FilmWEB - 8.5/10 (117.045)
Ocena:IMDb - 8.6/10 (268.533)

...( O filmie )...

http://filmweb.pl/serial/Vikings-2013-659055
http://www.filmweb.pl/serial/Wikingowie-2013-659055/photos
http://imdb.com/title/tt2306299/

...( Opis )...

Serial Wikingowie przedstawia historię Ragnara Lothbroka, prawdziwej postaci i największego bohatera swoich czasów. Jest to saga o nim i jego rodzinie, która opowiada o tym, jak staje się królem wszystkich wikingów. Ragnar był także nieugiętym wojownikiem, który oddaje się tradycji wiary w bogów. Legenda głosi, że jest potomkiem Odyna, boga wojny.

...( Obsada )...

Alexander Ludwig...Bjørn "Żelaznoboki" Lothbrok
Katheryn Winnick...Lagertha Lothbrok
Clive Standen...Rollo

[...]

»[Zobacz cały opis

Przeglądaj
1 - 50 | 51 - 100 | 101 - 150 | ... | 1101 - 1150 | 1151 - 1200 | 1201 - 1201
<< Poprzednia      Następna >>

stat4u Najlepsze strony Torrentowe Torrenty