Kategorie
Ranking
RSS
Hosting zapewnia

Google+
Programy

Statystyki
Użytkowników:
Zarejestrowanych wczoraj:
Zarejestrowanych dzisiaj:
Torrentów:
Dodanych wczoraj:
Dodanych dzisiaj:
Warezów:
Dodanych wczoraj:
Dodanych dzisiaj:
69,389
63
42
151,513
94
87
4,886
17
6
Ostatnie 30
Popularne
w Sierpniu
Przeglądaj
<< Poprzednia      Następna >>
1 - 50 | 51 - 100 | 101 - 109
Gatunki
Show/Hide [Pokaż/Ukryj]
Po kliknięciu ”Pokaż/Ukryj” możesz wyszukać pozycję z wybranymi gatunkami
(Pamiętaj że np. filmy mogą mieć więcej niż jeden gatunek)

Wybrane gatunki z kategorii: TV/Seriale

Popularno-Naukowy (112),
==Torrent==
Kategoria: TV/Seriale » Popularno-Naukowy


Dodał: Truski
Data dodania:
2016-04-13 20:34:11
Rozmiar: 660.57 MB
Seedów: 8
Peerów: 1
Pobrano: 44 razy

Komentarze: 0


...( Opis )...

„Sonda 2” to powrót do kultowej serii telewizyjnej lat 70. Legendarny program redaktorów Zdzisława Kamińskiego i Andrzeja Kurka stał się punktem odniesienia do podróży po świecie współczesnej techniki i nauki. Okazja ku temu jest doskonała: nowinki techniczne, o których mówili Kurek i Kamiński, w większości bowiem doczekały się pointy. Program prowadzi fizyk, dziennikarz i autor publikacji książkowych, człowiek, który jak nikt inny potrafi opowiadać o skomplikowanych zjawiskach naukowych – dr Tomasz Rożek. Dzięki obróbce cyfrowej archiwalnych materiałów nie tylko odnosi się do tego, co mówili Kurek i Kamiński. Ma też okazję z nimi „porozmawiać”!

...( Dane Techniczne )...

General : Sonda.2.S01E07-08.PL.WEB-DL.x264-YL4.mp4
Format : MPEG-4 at 1.866 Kb/s
Length : 290 MB for 21 min. 41s 687ms

Video #0 : AVC at 1.750 Kb/s
Aspect : 800 x 450 (1.778) at 50.000 fps

Audio #0 : AAC at 96,0 Kb/s
Infos : 2 kanały, 44,1 KHz


Source WEB

==Torrent==
Kategoria: TV/Seriale » Popularno-Naukowy


Dodał: Truski
Data dodania:
2016-04-05 13:21:07
Rozmiar: 609.08 MB
Seedów: 4
Peerów: 1
Pobrano: 46 razy

Komentarze: 0


...( Opis )...

„Sonda 2” to powrót do kultowej serii telewizyjnej lat 70. Legendarny program redaktorów Zdzisława Kamińskiego i Andrzeja Kurka stał się punktem odniesienia do podróży po świecie współczesnej techniki i nauki. Okazja ku temu jest doskonała: nowinki techniczne, o których mówili Kurek i Kamiński, w większości bowiem doczekały się pointy. Program prowadzi fizyk, dziennikarz i autor publikacji książkowych, człowiek, który jak nikt inny potrafi opowiadać o skomplikowanych zjawiskach naukowych – dr Tomasz Rożek. Dzięki obróbce cyfrowej archiwalnych materiałów nie tylko odnosi się do tego, co mówili Kurek i Kamiński. Ma też okazję z nimi „porozmawiać”!


...( Dane Techniczne )...

General : Sonda.2.S01E05.PL.WEB-DL.x264-YL4.mp4
Format : MPEG-4 at 1.866 Kb/s
Length : 310 MB for 21 min. 41s 687ms

Video #0 : AVC at 1.750 Kb/s
Aspect : 800 x 450 (1.778) at 50.000 fps

Audio #0 : AAC at 96,0 Kb/s
Infos : 2 kanały, 44,1 KHz


Source WEB


General : Sonda.2.S01E
[...]

»[Zobacz cały opis

==Torrent==
Kategoria: TV/Seriale » Popularno-Naukowy


Dodał: Truski
Data dodania:
2016-03-22 21:31:37
Rozmiar: 286.04 MB
Seedów: 5
Peerów: 0
Pobrano: 15 razy

Komentarze: 0


...( Opis )...

„Sonda 2” to powrót do kultowej serii telewizyjnej lat 70. Legendarny program redaktorów Zdzisława Kamińskiego i Andrzeja Kurka stał się punktem odniesienia do podróży po świecie współczesnej techniki i nauki. Okazja ku temu jest doskonała: nowinki techniczne, o których mówili Kurek i Kamiński, w większości bowiem doczekały się pointy. Program prowadzi fizyk, dziennikarz i autor publikacji książkowych, człowiek, który jak nikt inny potrafi opowiadać o skomplikowanych zjawiskach naukowych – dr Tomasz Rożek. Dzięki obróbce cyfrowej archiwalnych materiałów nie tylko odnosi się do tego, co mówili Kurek i Kamiński. Ma też okazję z nimi „porozmawiać”!


...( Dane Techniczne )...

General : Sonda.2.S01E04.PL.WEB-DL.x264-YL4.mp4
Format : MPEG-4 at 1.866 Kb/s
Length : 286 MB for 21 min. 41s 687ms

Video #0 : AVC at 1.750 Kb/s
Aspect : 800 x 450 (1.778) at 50.000 fps

Audio #0 : AAC at 96,0 Kb/s
Infos : 2 kanały, 44,1 KHz


Source WEB

==Torrent==
Kategoria: TV/Seriale » Popularno-Naukowy


Dodał: Truski
Data dodania:
2016-03-22 21:25:38
Rozmiar: 276.22 MB
Seedów: 5
Peerów: 0
Pobrano: 15 razy

Komentarze: 0


...( Opis )...

„Sonda 2” to powrót do kultowej serii telewizyjnej lat 70. Legendarny program redaktorów Zdzisława Kamińskiego i Andrzeja Kurka stał się punktem odniesienia do podróży po świecie współczesnej techniki i nauki. Okazja ku temu jest doskonała: nowinki techniczne, o których mówili Kurek i Kamiński, w większości bowiem doczekały się pointy. Program prowadzi fizyk, dziennikarz i autor publikacji książkowych, człowiek, który jak nikt inny potrafi opowiadać o skomplikowanych zjawiskach naukowych – dr Tomasz Rożek. Dzięki obróbce cyfrowej archiwalnych materiałów nie tylko odnosi się do tego, co mówili Kurek i Kamiński. Ma też okazję z nimi „porozmawiać”!


...( Dane Techniczne )...

General : Sonda.2.S01E03.PL.WEB-DL.x264-YL4.mp4
Format : MPEG-4 at 1.866 Kb/s
Length : 276 MB for 21 min. 41s 687ms

Video #0 : AVC at 1.750 Kb/s
Aspect : 800 x 450 (1.778) at 50.000 fps

Audio #0 : AAC at 96,0 Kb/s
Infos : 2 kanały, 44,1 KHz


Source WEB

==Torrent==
Kategoria: TV/Seriale » Popularno-Naukowy


Dodał: Truski
Data dodania:
2016-03-20 20:52:51
Rozmiar: 301.44 MB
Seedów: 12
Peerów: 0
Pobrano: 14 razy

Komentarze: 0


...( Opis )...

„Sonda 2” to powrót do kultowej serii telewizyjnej lat 70. Legendarny program redaktorów Zdzisława Kamińskiego i Andrzeja Kurka stał się punktem odniesienia do podróży po świecie współczesnej techniki i nauki. Okazja ku temu jest doskonała: nowinki techniczne, o których mówili Kurek i Kamiński, w większości bowiem doczekały się pointy. Program prowadzi fizyk, dziennikarz i autor publikacji książkowych, człowiek, który jak nikt inny potrafi opowiadać o skomplikowanych zjawiskach naukowych – dr Tomasz Rożek. Dzięki obróbce cyfrowej archiwalnych materiałów nie tylko odnosi się do tego, co mówili Kurek i Kamiński. Ma też okazję z nimi „porozmawiać”!


...( Dane Techniczne )...

General : Sonda.2.S01E02.PL.WEB-DL.x264-YL4.mp4
Format : MPEG-4 at 1.866 Kb/s
Length : 301 MB for 21 min. 41s 687ms

Video #0 : AVC at 1.750 Kb/s
Aspect : 800 x 450 (1.778) at 50.000 fps

Audio #0 : AAC at 96,0 Kb/s
Infos : 2 kanały, 44,1 KHz


Source WEB

==Torrent==
Kategoria: TV/Seriale » Popularno-Naukowy


Dodał: Truski
Data dodania:
2016-03-20 20:47:06
Rozmiar: 289.64 MB
Seedów: 5
Peerów: 0
Pobrano: 13 razy

Komentarze: 0


...( Opis )...

„Sonda 2” to powrót do kultowej serii telewizyjnej lat 70. Legendarny program redaktorów Zdzisława Kamińskiego i Andrzeja Kurka stał się punktem odniesienia do podróży po świecie współczesnej techniki i nauki. Okazja ku temu jest doskonała: nowinki techniczne, o których mówili Kurek i Kamiński, w większości bowiem doczekały się pointy. Program prowadzi fizyk, dziennikarz i autor publikacji książkowych, człowiek, który jak nikt inny potrafi opowiadać o skomplikowanych zjawiskach naukowych – dr Tomasz Rożek. Dzięki obróbce cyfrowej archiwalnych materiałów nie tylko odnosi się do tego, co mówili Kurek i Kamiński. Ma też okazję z nimi „porozmawiać”!


...( Dane Techniczne )...

General : Sonda.2.S01E01.PL.WEB-DL.x264-YL4
Format : MPEG-4 at 1.866 Kb/s
Length : 290 MB for 21 min. 41s 687ms

Video #0 : AVC at 1.750 Kb/s
Aspect : 800 x 450 (1.778) at 50.000 fps

Audio #0 : AAC at 96,0 Kb/s
Infos : 2 kanały, 44,1 KHz


Source WEB

==Torrent==
Kategoria: TV/Seriale » Popularno-Naukowy


Dodał: myca1125
Data dodania:
2016-02-28 13:48:29
Rozmiar: 194.42 MB
Seedów: 5
Peerów: 0
Pobrano: 15 razy

Komentarze: 0


INFO
Tytuł: Oszukać System
prowadzący - Brian Brushwood
gatunek: Serial Dokumentalny
Data: 2014
Lektor PL

OPIS
Charyzmatyczny prowadzący - Brian Brushwood w swoim programie pokaże nam jak manipulować społeczeństwem
i myśleć jak przestępca. Ta wiedza może pomóc zwykłym ludziom uchronić się przed niebezpieczeństwem.
Zwłaszcza w dobie rozwoju nowych technologii. Przekonamy się, jak nasz własny komputer może stać się
naszym własnym wrogiem, zwłaszcza w publicznej przestrzeni z dostępem do wifi. Zobaczymy, jak jednym
kliknięciem można włamać się na konto bankowe, by zarządzać cudzymi finansami. Sprawdzimy, czy nawet
najbardziej przemyślne systemy zabezpieczeń są w stanie ustrzec nas przed niepożądanymi gośćmi.
Dlaczego musimy uważać na to, co wyrzucamy do śmieci i jak skutecznie pozbyć się danych?
Ta seria, to pełen trików elementarz jak unikać pułapek, w które bezwiednie możemy wpaść.
Jak utrzymać siebie i swoją tożsamość z dala od oszustów?

DANE TECH
General:
[...]

»[Zobacz cały opis

==Torrent==
Kategoria: TV/Seriale » Popularno-Naukowy


Dodał: tomeks
Data dodania:
2015-10-17 15:41:38
Rozmiar: 906.63 MB
Seedów: 12
Peerów: 2
Pobrano: 10 razy

Komentarze: 0


Seeduje do 5 pelnych.

...( Info )...



Dokument
Czechy, 2014
30 min

...( Opis )...

Dlaczego węże mają rozdwojone języki? Po co słoniom takie duże uszy? Dlaczego ćmy mają czułki, które wyglądają jak pióra? Te i inne szczególne cechy wykształciły się nie bez powodu. Ich zadaniem jest pomóc zwierzętom komunikować się między sobą, zdobyć pożywienie i przetrwać.

4.Węch
5.Nadludzkie zdolnośc
6. Szósty zmysł

...( Dane Techniczne )...

Przykładowe dane techniczne odcinka:

Rozmiar pliku: 303.9 MiB
Czas trwania: 00:25:57
Ogólne bitrate pliku: 1 636 Kbps
Format: MPEG-4

Video FPS: 25.000
Video kodek:
Video bitrate: 1 520 Kbps
Video rozdzielczość: 720x400
Video rozmiar: 279 MiB (92%)
Video proporcje obrazu: 16:9

Audio format: AAC
Audio format wynik: Advanced Audio Codec
Audio bitrate: 128 Kbps
Audio liczba kanałów: 2
Audio sampling rate: 48.0 KHz
Audio resolution:
Audio rozmiar: 23.7 MiB (8%)

==Torrent==
Kategoria: TV/Seriale » Popularno-Naukowy


Dodał: tomeks
Data dodania:
2015-09-05 10:22:31
Rozmiar: 677.29 MB
Seedów: 17
Peerów: 3
Pobrano: 6 razy

Komentarze: 0


...( Opis )...

Pogoda jest jedną z najbardziej zadziwiających mocy na Ziemi. Jest zdolna do zarówno niszczycielskiej siły, jak i zjawiskowego piękna. Gdziekolwiek się znajdujesz na planecie, pogoda kształtuje twój świat. Jednakże jak ona działa nadal pozostaje dla większości z nas tajemnicą.

Pogoda, nawet ta na co dzień, pełna jest tajemnic i cudów. Pomimo, iż naukowcy badają ją od tysięcy lat, wiemy znacznie mniej na temat tego jak faktycznie działa niż można się spodziewać. Działające tu ukryte mechanizmy są częstokroć zadziwiające i czasami wprost magiczne.

Choć mechanizmy powstawania zjawisk pogodowych są odkrywane od tysięcy lat, wciąż mają przed człowiekiem wiele tajemnic. Richard Hammond stawia sobie za cel rozwiać przynajmniej część z nich. W tym celu udaje się do miejsc, które są znane z występowania m.in. nasilonych opadów czy częstych powodzi.
...( Dane Techniczne )...

Video: MPEG4 Video (H264) 720x576 1 957 Kbps
Audio: AAC 48000Hz stereo 192kbps
źródło tłumac
[...]

»[Zobacz cały opis

==Torrent==
Kategoria: TV/Seriale » Popularno-Naukowy


Dodał: tomeks
Data dodania:
2015-08-15 08:19:35
Rozmiar: 556.28 MB
Seedów: 10
Peerów: 3
Pobrano: 12 razy

Komentarze: 0


Info:

Skarby natury na Kubie
Hiszpania 2013
Reżyseria: Manuel Morales

Opis:

Kuba jest największą wyspą archipelagu Antyle na Morzu Karaibskim. Znajduje się w strefie klimatu tropikalnego, co w niezwykły sposób wpłynęło na tamtejszą faunę i florę. Endemiczne gatunki, budowa geologiczna i odległość od lądów sprawiły, że można się tam poczuć jak w epoce, w której Ziemią władały dinozaury. W skład państwa wchodzi wyspa Kuba oraz 4200 innych wysepek i podwodnych skał koralowych. Nietknięte ludzką ręką rejony, krystalicznie czysta woda i las tropikalny uczyniły z Kuby raj dla zwierząt oraz roślin.

Dane Techniczne:

Format : Matroska at 1.491 Kb/s
Length : 556 MB for 52 min. 10s 330ms

Video #0 : AVC at 1.350 Kb/s
Aspect : 720 x 400 (1.800)

Audio #0 : AC-3 at 160 Kb/s
Infos : 2 kanały, 48,0 KHz

==Torrent==
Kategoria: TV/Seriale » Popularno-Naukowy


Dodał: piratte
Data dodania:
2015-04-21 16:55:59
Rozmiar: 233.57 MB
Seedów: 45
Peerów: 4
Pobrano: 4 razy

Komentarze: 0


Bliżej prawdy S02E12 - Czym jest sąd boży [HDTV] [XviD-YBA] [Lektor PL]

"Bliżej prawdy" to wyjątkowy serial, poszukujący odpowiedzi na fundamentalne pytania dotyczące kosmosu, świadomości i wiary. To filozoficzna podróż w poszukiwaniu prawdy przez wielkie "P".
Twórcy podróżują przez cały świat w poszukiwaniu odpowiedzi na najważniejsze pytania dotyczące ludzkiej egzystencji.
Ile istnieje wszechświatów? Czy podróże w czasie są możliwe? Jak brzmią dowody na nieistnienie Boga? Czym jest wolna wola? Czy żyjemy w czasach ostatnich? Jak wygląda życie po śmierci? Co tak naprawdę istnieje?
Naukowcy, akademicy i artyści omawiają najnowsze odkrycia oraz ich obecny i ewentualny wpływ na życie ludzkości, przy okazji poruszając fundamentalne kwestie dotyczące wiary i wiedzy. Głos zabiera kilkudziesięciu intelektualistów - reprezentantów różnych dziedzin i dyscyplin naukowych. Ze swoją wiedzą i doświadczeniem dociekają odpowiedzi na nurtujące wszystkich pytania, aby w rezultacie znaleźć się bl
[...]

»[Zobacz cały opis

==Torrent==
Kategoria: TV/Seriale » Popularno-Naukowy


Dodał: tomeks
Data dodania:
2015-03-26 18:47:51
Rozmiar: 1.50 GB
Seedów: 1
Peerów: 11
Pobrano: 8 razy

Komentarze: 0


...( Info )...



Film: Wielki krąg życia
Gatunek: Dokumentalny
Rok produkcji: 2014
Produkcja: USA
Czas trwania: 50min

...( Opis )...

W tym filmie widzowie zobaczą, jak ekipa "Wielkiego kręgu życia" przygotowywała się do filmowania najważniejszych momentów z życia zwierząt.

...( Dane Techniczne )...

Format : Matroska at 3.928 Kb/s
Length : 1,38 GB for 50 min. 16s 280ms

Video #0 : AVC at 3.658 Kb/s
Aspect : 1280 x 720 (1.778)

Audio #0 : AC-3 at 192 Kb/s
Infos : 2 kanały, 48,0 KHz
Language : pl



http://hostmat.eu/images/77743140825397808216.jpg

==Torrent==
Kategoria: TV/Seriale » Popularno-Naukowy


Dodał: tomeks
Data dodania:
2015-03-14 08:22:02
Rozmiar: 1.26 GB
Seedów: 6
Peerów: 13
Pobrano: 9 razy

Komentarze: 0


...( Info )...



Film: Wielki krąg życia
Gatunek: Dokumentalny
Rok produkcji: 2014
Produkcja: USA
Czas trwania: 50min

...( Opis )...

Kamery rejestrują życie zwierząt - od narodzin po poczęcie własnego potomstwa. Dokumentaliści śledzą kolejne etapy rozwoju poszczególnych bohaterów, przyjmując ich punkt widzenia. Zwierzęta - podobnie jak ludzie - zmagają się z przeciwnościami, nim osiągną dojrzałość. Walczą o pozycję w grupie, znalezienie odpowiedniego partnera, wydanie na świat nowego pokolenia i zapewnienie mu wszystkiego co najlepsze. Na tym polu odnoszą triumfy i doświadczają porażek.

...( Dane Techniczne )...

Format : Matroska at 3.928 Kb/s
Length : 1,38 GB for 50 min. 16s 280ms

Video #0 : AVC at 3.658 Kb/s
Aspect : 1280 x 720 (1.778)

Audio #0 : AC-3 at 192 Kb/s
Infos : 2 kanały, 48,0 KHz
Language : pl


http://hostmat.eu/images/50533858772788091278.jpg

==Torrent==
Kategoria: TV/Seriale » Popularno-Naukowy


Dodał: LegioWalchon
Data dodania:
2015-02-05 18:23:03
Rozmiar: 1.48 GB
Seedów: 28
Peerów: 5
Pobrano: 12 razy

Komentarze: 0


==================
...::: INFO :::...
==================

ODCINKI

Chcę być mądrzejszy! (S01E01)
Chcę być bardziej twórczy! (S01E02)
Triumf woli (S01E03)

==================
...::: OPIS :::...
==================

„Zaprogramować mózg” to fascynująca podróż w zawiłości nauki zwanej neuroplastyką – pokazującej, że pewien rodzaj treningu umysłu może sprawić, iż każdy z nas stanie się bardziej bystry, a także polepszy pamięć i odwróci skutki starzenia się mózgu. Nierealne? Nic podobnego. To będzie prawdziwy test idei neuroplastyki w praktyce, z naprawdę zaskakującymi efektami.

Podczas trzymiesięcznego kursu znany celebryta Todd Sampson weźmie udział w nietypowym treningu, który ma zmienić jego zwyczajny mózg w „supermózg”. To będzie zabawna, emocjonująca i zarazem fascynująca podróż w głąb mechanizmów naszych umysłów. Widzowie otrzymają dawkę przydatnej wiedzy z pierwszej, naukowej ręki, jak mogą sami przeprojektować na lepsze swój własny mózg. Więc jak? Jesteście gotowi na
[...]

»[Zobacz cały opis

==Torrent==
Kategoria: TV/Seriale » Popularno-Naukowy


Dodał: LegioWalchon
Data dodania:
2015-01-19 01:51:18
Rozmiar: 375.40 MB
Seedów: 1
Peerów: 0
Pobrano: 3 razy

Komentarze: 0


3 Odcinki archiwalne roku w ogrodzie.



25.01.2014

Wiadomo nie od dziś, że przebywanie wśród zieleni jest zdrowe. Na szczycie rankingów roślin najbardziej przyjaznych człowiekowi niezmiennie gości dracena. Tej dobrej opinii przysłużyła się… NASA.



12.01.2013

Program dla miłośników działek, ogrodów i balkonów, w nim informacje na temat uprawy warzyw, owoców i kwiatów. Pokaz nowych odmian i porady, jak osiągnąć na własnej działce większe plony. Najpiękniejsze ogrody i najnowsze sposoby ich pielęgnacji.




02.02.2013

W programie rośliny doniczkowe, a wśród nich dracena. Znają ją wszyscy, ale mało kto widział jej kwiaty.

==Torrent==
Kategoria: TV/Seriale » Popularno-Naukowy


Dodał: LegioWalchon
Data dodania:
2015-01-19 01:49:39
Rozmiar: 132.85 MB
Seedów: 0
Peerów: 0
Pobrano: 1 razy

Komentarze: 0


Rok w ogrodzie 17.01.2015

Szczęśliwi posiadacze kamelii właśnie teraz mogą podziwiać ich różowe, czerwone lub białe kwiaty. Jak postępować z tymi pięknymi roślinami? W programie mówimy także o roślinach pochodzących z cieplejszych krajów, którym warto dać szansę w naszym ogrodzie – a nuż uda im się przetrwać zimę.

==Torrent==
Kategoria: TV/Seriale » Popularno-Naukowy


Dodał: LegioWalchon
Data dodania:
2015-01-16 17:44:18
Rozmiar: 117.83 MB
Seedów: 0
Peerów: 0
Pobrano: 1 razy

Komentarze: 0


Archiwalny odcinek!!!

Rok w ogrodzie (18.01.2014) [TVRip.XviD] [PL]

Mimo śniegu za oknem tegoroczna zima przypomina raczej wczesną wiosnę. W programie o roślinach, które zwariowały i… zakwitły – ciemierniku i oczarze.

==Torrent==
Kategoria: TV/Seriale » Popularno-Naukowy


Dodał: LegioWalchon
Data dodania:
2015-01-15 16:24:53
Rozmiar: 313.44 MB
Seedów: 0
Peerów: 0
Pobrano: 3 razy

Komentarze: 0


2 odcinki roku w ogrodzie (03-10.01.2015)

Odcinek 1 (03.01.2015)

Rok w ogrodzie (03.01.2015)
Storczyk, czyli orchidea, to kwiat niezwykły, a liczba jego odmian jest oszałamiająca. Zachwyca on barwami, które wabią owady oraz niezwykłymi kształtami płatków. Niektóre z nich przywołują na myśl konwalie, a inne nawet rój pszczół.

Odcinek 2 (10.01.2015)

Kwiaty doniczkowe to ozdoba każdego mieszkania. Zimą, gdy za oknem prawie nie widać zieleni, warto wprowadzić ją do naszego domu. Świeża, zielona roślina powinna znaleźć się w każdym domowym pomieszczeniu, z którego korzystamy. Dzięki niej bardzo poprawia się jakość powietrza, którym oddychamy. Jak odpowiednio zadbać o fikusy, draceny, palmy czy laury?

==Torrent==
Kategoria: TV/Seriale » Popularno-Naukowy


Dodał: LegioWalchon
Data dodania:
2014-12-31 14:54:55
Rozmiar: 186.01 MB
Seedów: 1
Peerów: 0
Pobrano: 2 razy

Komentarze: 0


...( Opis )...

W okresie świątecznym warto wyjść do ogrodu, aby móc się nim nacieszyć. Wiele roślin o tej porze roku wygląda zupełnie inaczej. Wystarczy spojrzeć na kosodrzewinę. Podczas zimowych mrozów nabiera ona pięknego żółtego koloru. Wspaniale zdobią nasz zimowy ogród także rozmaite odmiany tui.

==Torrent==
Kategoria: TV/Seriale » Popularno-Naukowy


Dodał: LegioWalchon
Data dodania:
2014-12-31 14:24:15
Rozmiar: 1.36 GB
Seedów: 0
Peerów: 2
Pobrano: 4 razy

Komentarze: 0


...( Info )...

"Megalodon – Nowy ślad"

...( Opis )...

Dokumentaliści zastanawiają się, czy 18-metrowy prehistoryczny rekin o nazwie megalodon nadal może pływać gdzieś w oceanie.

...( Dane Techniczne )...

Format : AVI
Format/Info : Audio Video Interleave
File size : 1.36 GiB
Duration : 43mn 24s
Overall bit rate : 4 495 Kbps
Writing library : VirtualDub build 32842/release

Video
ID : 0
Format : MPEG-4 Visual
Format profile : Advanced Simple@L5
Format settings, BVOP : 2
Format settings, QPel : No
Format settings, GMC : No warppoints
Format settings, Matrix : Default (MPEG)
Codec ID : XVID
Codec ID/Hint : XviD
Duration : 43mn 24s
Bit rate : 4 101 Kbps
Width : 1 280 pixels
Height : 720 pixels
Display aspect ratio : 16:9
Frame rate : 25.000 fps
Color space : YUV
Chroma subsampling : 4:2:0
Bit depth : 8 bits
Scan type : Progressive
Compression mode : Lossy
Bits/(Pixel*Frame) : 0.178
Stream size : 1.24 GiB (91%)
Writing library : XviD 1.2.1 (UTC 20
[...]

»[Zobacz cały opis

==Torrent==
Kategoria: TV/Seriale » Popularno-Naukowy


Dodał: LegioWalchon
Data dodania:
2014-12-22 11:56:44
Rozmiar: 157.55 MB
Seedów: 1
Peerów: 0
Pobrano: 2 razy

Komentarze: 0



...( Opis )...

Jaką choinkę wybrać na Święta? Bardziej trwałą czy ładniej pachnącą? Świerk pospolity wydziela piękny zapach, ale należy pamiętać, że w temperaturze pokojowej nie utrzyma się długo. Z kolei świerk kłujący i jodła kaukaska utrzymają się dłużej, a przy tym ich igły są bardziej przyjazne w dotyku.

==Torrent==
Kategoria: TV/Seriale » Popularno-Naukowy


Dodał: LegioWalchon
Data dodania:
2014-12-15 00:42:39
Rozmiar: 239.15 MB
Seedów: 0
Peerów: 0
Pobrano: 1 razy

Komentarze: 0


...( Opis )...

Nasz ogród o tej porze roku z pewnością nieco już przysnął. Warto jednak pamiętać, że i teraz może on być prawdziwą kopalnią niezwykłych elementów, które można wykorzystać przy robieniu świątecznych ozdób. Biała i ametystowa śnieguliczka, a także nieszpułka, bez czarny i owoce rajskiej jabłoni idealnie nadają się na bożonarodzeniowe dekoracje.

==Torrent==
Kategoria: TV/Seriale » Popularno-Naukowy


Dodał: LegioWalchon
Data dodania:
2014-12-07 18:39:59
Rozmiar: 126.05 MB
Seedów: 1
Peerów: 0
Pobrano: 1 razy

Komentarze: 0


Rok w ogrodzie (06.12.2014) [TVRip.XviD] [PL]


Dzisiaj rok w ogrodzie poświęcony jest dekorowaniu i pakowaniu prezentów.

==Torrent==
Kategoria: TV/Seriale » Popularno-Naukowy


Dodał: LegioWalchon
Data dodania:
2014-12-07 16:38:54
Rozmiar: 1.05 GB
Seedów: 0
Peerów: 0
Pobrano: 1 razy

Komentarze: 0


ROK W OGRODZIE CZERWIEC 2014

Kolejne odcinki z czerwca. Miłego oglądania i planowania.

==Torrent==
Kategoria: TV/Seriale » Popularno-Naukowy


Dodał: LegioWalchon
Data dodania:
2014-12-07 15:54:54
Rozmiar: 1.40 GB
Seedów: 0
Peerów: 0
Pobrano: 1 razy

Komentarze: 0


...( Info )...

Zapraszam do obejrzenia pięciu odcinków Roku w ogrodzie.Powoli można planować plony na drugi rok, a jeśli nie, to chociaż przypomnimy sobie jeden z najpiękniejszych miesięcy w roku.

==Torrent==
Kategoria: TV/Seriale » Popularno-Naukowy


Dodał: LegioWalchon
Data dodania:
2014-12-02 23:12:32
Rozmiar: 120.86 MB
Seedów: 0
Peerów: 0
Pobrano: 2 razy

Komentarze: 0


ROK W OGRODZIE 29.11.2014

...( Opis )...

Jabłka, orzechy, dzika róża, głóg, owoce berberysu i pigwowca – dary bardzo późnej jesieni. Co jeszcze można zebrać w naszym ogrodzie i jakie przetwory z tego wykonać? Poza tym w programie: liście, kora, specjalne mieszanki – jak zabezpieczyć rośliny przed zimą? W jaki sposób zadbać o rośliny domowe, jakie szkodniki mogą im zagrażać i jak z nimi walczyć? Trzmielina zwyczajna, trzmielina oskrzydlona – czyli rośliny jesienno-zimowe.

==Torrent==
Kategoria: TV/Seriale » Popularno-Naukowy


Dodał: LegioWalchon
Data dodania:
2014-11-27 23:57:07
Rozmiar: 700.04 MB
Seedów: 18
Peerów: 3
Pobrano: 13 razy

Komentarze: 0


Pomimo że człowiek potrafi już podróżować po kosmosie i dysponuje coraz doskonalszą aparaturą badawczą, wszechświat nadal stanowi dla niego wielką tajemnicę. Choć może go obserwować, badać, a nawet mierzyć, nadal nie potrafi go w pełni ogarnąć.Naukowcy odsłaniają tajemnice astronomii. W nowej serii wyjaśniają istotę supernowych, pokazują różne księżyce, planety i gwiazdy. Za pomocą nowatorskich technik grafiki komputerowej eksperci zaprezentują widzom, jak działa wszechświat i jakie zjawiska w nim zachodzą. Opowiedzą o tytanicznych siłach, które nadal kształtują świat: od wulkanów i silnych galaktycznych burz po pełne minerałów asteroidy i komety.Autorzy szukają odpowiedzi na pytania: czym jest wszechświat, jaki był jego początek i kiedy nastąpił.

==Torrent==
Kategoria: TV/Seriale » Popularno-Naukowy


Dodał: LegioWalchon
Data dodania:
2014-11-27 23:56:19
Rozmiar: 700.83 MB
Seedów: 8
Peerów: 5
Pobrano: 15 razy

Komentarze: 0


Pomimo że człowiek potrafi już podróżować po kosmosie i dysponuje coraz doskonalszą aparaturą badawczą, wszechświat nadal stanowi dla niego wielką tajemnicę. Choć może go obserwować, badać, a nawet mierzyć, nadal nie potrafi go w pełni ogarnąć.Naukowcy odsłaniają tajemnice astronomii. W nowej serii wyjaśniają istotę supernowych, pokazują różne księżyce, planety i gwiazdy. Za pomocą nowatorskich technik grafiki komputerowej eksperci zaprezentują widzom, jak działa wszechświat i jakie zjawiska w nim zachodzą. Opowiedzą o tytanicznych siłach, które nadal kształtują świat: od wulkanów i silnych galaktycznych burz po pełne minerałów asteroidy i komety.Autorzy szukają odpowiedzi na pytania: czym jest wszechświat, jaki był jego początek i kiedy nastąpił.

==Torrent==
Kategoria: TV/Seriale » Popularno-Naukowy


Dodał: LegioWalchon
Data dodania:
2014-11-19 00:46:45
Rozmiar: 504.12 MB
Seedów: 39
Peerów: 8
Pobrano: 10 razy

Komentarze: 0


Info

Produkcja: National Geographic
Gatunek: Dokumentalny
Rok produkcji: 2014
Czas trwania: ok. 43 min
Język: Polski lektor

Opis

Kulisy najtrudniejszej misji kosmicznej w historii, której celem było zrozumienie narodzin i ewolucji Układu Słonecznego. "Rosetta" wymagała 20 lat przygotowań, w tym 10 lat w samym kosmosie. Międzynarodowy zespół ekspertów poświęcił tysiące godzin pracy, aby zbliżyć sondę kosmiczną do komety 67P (Churyumov-Gierasimenko). Eksperyment zakończył się sukcesem 6 sierpnia 2014 roku.

Dane Techniczne

Video: Xvid 640x360 25.00fps 1460kbps [Video 0]
Audio: MPEG Audio Layer 3 48000Hz stereo 129kbps
źródło tłumaczenia: lektor profesjonalny
źródło obrazu *DVBRip*
wielkość partów:....:504 MB
zawartość uploadu:..: plik .avi
wersja językowa:....: Polski Lektor
Czas trwania:.......43:58

==Torrent==
Kategoria: TV/Seriale » Popularno-Naukowy


Dodał: tomeks
Data dodania:
2014-11-13 10:38:46
Rozmiar: 504.12 MB
Seedów: 17
Peerów: 4
Pobrano: 2 razy

Komentarze: 0


...( Info )...



Produkcja: National Geographic
Gatunek: Dokumentalny
Rok produkcji: 2014
Czas trwania: ok. 43 min
Język: Polski lektor

...( Opis )...

Kulisy najtrudniejszej misji kosmicznej w historii, której celem było zrozumienie narodzin i ewolucji Układu Słonecznego. "Rosetta" wymagała 20 lat przygotowań, w tym 10 lat w samym kosmosie. Międzynarodowy zespół ekspertów poświęcił tysiące godzin pracy, aby zbliżyć sondę kosmiczną do komety 67P (Churyumov-Gierasimenko). Eksperyment zakończył się sukcesem 6 sierpnia 2014 roku.

...( Dane Techniczne )...

Video: Xvid 640x360 25.00fps 1460kbps [Video 0]
Audio: MPEG Audio Layer 3 48000Hz stereo 129kbps
źródło tłumaczenia: lektor profesjonalny
źródło obrazu *DVBRip*
wielkość partów:....:504 MB
zawartość uploadu:..: plik .avi
wersja językowa:....: Polski Lektor
Czas trwania:.......43:58

==Torrent==
Kategoria: TV/Seriale » Popularno-Naukowy


Dodał: dzony85
Data dodania:
2014-10-18 20:57:52
Rozmiar: 2.18 GB
Seedów: 4
Peerów: 3
Pobrano: 6 razy

Komentarze: 0


========================================
INFO:
========================================

Kraj: Francja
Gatunek: dokument popularnonaukowy
Czas trwania: 21 min. 13 sec.
Reżyseria: Jacques Malaterre

========================================
OPIS:
========================================

12 tysięcy lat przed naszą erą homo sapiens potrafił już wytwarzać narzędzia i ubrania. Hodował zwierzęta i nawet starał się uprawiać rolę. Mieszkał w prymitywnych domach i tworzył społeczności, w których relacje budowała nie tylko wspólna walka o przetrwanie, ale również miłość, przyjaźń, przywiązanie. Słowem - pod względem emocjonalnym niewiele różnił się od nas. Jego rozwój intelektualny i duchowy natomiast dopiero się zaczynał. Zapraszam na drugą część fabularyzowanego dokumentu opowiadającego dzieje człowieka jako istoty myślącej. Potrafiącej posługiwać się wyobraźnią i rozumem, zdolnej do tworzenia filozofii, religii, medycyny, architektury i sztuki

=================================
[...]

»[Zobacz cały opis

==Torrent==
Kategoria: TV/Seriale » Popularno-Naukowy


Dodał: dzony85
Data dodania:
2014-10-18 20:57:12
Rozmiar: 2.21 GB
Seedów: 3
Peerów: 0
Pobrano: 4 razy

Komentarze: 0


========================================
INFO:
========================================

Kraj: Francja
Gatunek: dokument popularnonaukowy
Czas trwania: 21 min. 13 sec.
Reżyseria: Jacques Malaterre

========================================
OPIS:
========================================

12 tysięcy lat przed naszą erą homo sapiens potrafił już wytwarzać narzędzia i ubrania. Hodował zwierzęta i nawet starał się uprawiać rolę. Mieszkał w prymitywnych domach i tworzył społeczności, w których relacje budowała nie tylko wspólna walka o przetrwanie, ale również miłość, przyjaźń, przywiązanie. Słowem - pod względem emocjonalnym niewiele różnił się od nas. Jego rozwój intelektualny i duchowy natomiast dopiero się zaczynał. Zapraszam na drugą część fabularyzowanego dokumentu opowiadającego dzieje człowieka jako istoty myślącej. Potrafiącej posługiwać się wyobraźnią i rozumem, zdolnej do tworzenia filozofii, religii, medycyny, architektury i sztuki

=================================
[...]

»[Zobacz cały opis

==Torrent==
Kategoria: TV/Seriale » Popularno-Naukowy


Dodał: LegioWalchon
Data dodania:
2014-10-18 15:33:11
Rozmiar: 2.18 GB
Seedów: 1
Peerów: 4
Pobrano: 1 razy

Komentarze: 0


========================================
INFO:
========================================

Kraj: Francja
Gatunek: dokument popularnonaukowy
Czas trwania: 21 min. 13 sec.
Reżyseria: Jacques Malaterre

========================================
OPIS:
========================================

12 tysięcy lat przed naszą erą homo sapiens potrafił już wytwarzać narzędzia i ubrania. Hodował zwierzęta i nawet starał się uprawiać rolę. Mieszkał w prymitywnych domach i tworzył społeczności, w których relacje budowała nie tylko wspólna walka o przetrwanie, ale również miłość, przyjaźń, przywiązanie. Słowem - pod względem emocjonalnym niewiele różnił się od nas. Jego rozwój intelektualny i duchowy natomiast dopiero się zaczynał. Zapraszam na drugą część fabularyzowanego dokumentu opowiadającego dzieje człowieka jako istoty myślącej. Potrafiącej posługiwać się wyobraźnią i rozumem, zdolnej do tworzenia filozofii, religii, medycyny, architektury i sztuki

=================================
[...]

»[Zobacz cały opis

==Torrent==
Kategoria: TV/Seriale » Popularno-Naukowy


Dodał: LegioWalchon
Data dodania:
2014-10-18 15:32:32
Rozmiar: 2.21 GB
Seedów: 2
Peerów: 2
Pobrano: 1 razy

Komentarze: 0


========================================
INFO:
========================================

Kraj: Francja
Gatunek: dokument popularnonaukowy
Czas trwania: 21 min. 13 sec.
Reżyseria: Jacques Malaterre

========================================
OPIS:
========================================

12 tysięcy lat przed naszą erą homo sapiens potrafił już wytwarzać narzędzia i ubrania. Hodował zwierzęta i nawet starał się uprawiać rolę. Mieszkał w prymitywnych domach i tworzył społeczności, w których relacje budowała nie tylko wspólna walka o przetrwanie, ale również miłość, przyjaźń, przywiązanie. Słowem - pod względem emocjonalnym niewiele różnił się od nas. Jego rozwój intelektualny i duchowy natomiast dopiero się zaczynał. Zapraszam na drugą część fabularyzowanego dokumentu opowiadającego dzieje człowieka jako istoty myślącej. Potrafiącej posługiwać się wyobraźnią i rozumem, zdolnej do tworzenia filozofii, religii, medycyny, architektury i sztuki

=================================
[...]

»[Zobacz cały opis

==Torrent==
Kategoria: TV/Seriale » Popularno-Naukowy


Dodał: marcinc33
Data dodania:
2014-06-02 18:06:53
Rozmiar: 1.73 GB
Seedów: 0
Peerów: 1
Pobrano: 5 razy

Komentarze: 0


...( Info )...

Leżąca u wschodnich wybrzeży Australii Wielka Rafa Koralowa jest jednym z siedmiu cudów świata natury. Dokumentaliści przyglądają się niezwykłej faunie i florze tego miejsca.Monty Halls i jego ekspedycja przyglądają się skomplikowanej strukturze Wielkiej Rafy Koralowej. Na dwóch tysiącach kilometrów żyje wiele malutkich zwierząt i mikroskopijnych organizmów roślinnych, które razem tworzą to malownicze środowisko. Każdego dnia zamieszkujące ten obszar stworzenia wchodzą w wiele skomplikowanych relacji. Dokumentaliści obserwują m.in. techniki polowań drapieżnych ślimaków, zachowania miejscowych rekinów oraz skarusowatych, które potrafią w nocy wytworzyć ochronny kokon, zamykający dostęp do ich kryjówki.

To 1 z 3 czesci

==Torrent==
Kategoria: TV/Seriale » Popularno-Naukowy


Dodał: marcinc33
Data dodania:
2014-06-02 18:02:07
Rozmiar: 1.72 GB
Seedów: 0
Peerów: 0
Pobrano: 2 razy

Komentarze: 0


...( Info )...

Leżąca u wschodnich wybrzeży Australii Wielka Rafa Koralowa jest jednym z siedmiu cudów świata natury. Dokumentaliści przyglądają się niezwykłej faunie i florze tego miejsca.Monty Halls i jego ekspedycja przyglądają się skomplikowanej strukturze Wielkiej Rafy Koralowej. Na dwóch tysiącach kilometrów żyje wiele malutkich zwierząt i mikroskopijnych organizmów roślinnych, które razem tworzą to malownicze środowisko. Każdego dnia zamieszkujące ten obszar stworzenia wchodzą w wiele skomplikowanych relacji. Dokumentaliści obserwują m.in. techniki polowań drapieżnych ślimaków, zachowania miejscowych rekinów oraz skarusowatych, które potrafią w nocy wytworzyć ochronny kokon, zamykający dostęp do ich kryjówki.

To 2 z 3 czesci

==Torrent==
Kategoria: TV/Seriale » Popularno-Naukowy


Dodał: marcinc33
Data dodania:
2014-05-20 19:15:51
Rozmiar: 349.96 MB
Seedów: 0
Peerów: 3
Pobrano: 1 razy

Komentarze: 0


...( Info )...

Więcej ludzi dotarło na Księżyc niż w głębiny oceanu. Na dnie morskim znajduje się niezwykły świat. Ogromne wulkany, temperatury mogące stopić ołów, najdłużej żyjące zwierzęta na planecie oraz trzęsienia ziemi tak potężne, że wywołują zabójcze fale uderzające w ląd tysiące kilometrów dalej

==Torrent==
Kategoria: TV/Seriale » Popularno-Naukowy


Dodał: LegioWalchon
Data dodania:
2014-05-13 00:44:03
Rozmiar: 613.56 MB
Seedów: 1
Peerów: 0
Pobrano: 7 razy

Komentarze: 0


Premierowy 9 odcinek nowej serii na National Geographic.
Seria składa się z 13 odcinków. Co tydzień premiera nowego odcinka.

Odcinek 9:
Kosmos - Elektryczny chłopiec

Nagrywałem z Weeb TV -National Geographic HD

==Torrent==
Kategoria: TV/Seriale » Popularno-Naukowy


Dodał: electroloader
Data dodania:
2014-05-10 17:00:31
Rozmiar: 350.01 MB
Seedów: 1
Peerów: 2
Pobrano: 5 razy

Komentarze: 0


Hernan Cortes przybył do Ameryki, zastał wspaniałą cywilizację Azteków rozciągającą się od Atlantyku po Pacyfik. Nikt nie przypuszczał, że to niezwykłe imperium jest spuścizną po wielu wcześniejszych cywilizacjach. Tereny Mezoameryki oprócz Azteków zamieszkiwali Olmekowie, Toltekowie, a przede wszystkim Majowie.

==Torrent==
Kategoria: TV/Seriale » Popularno-Naukowy


Dodał: electroloader
Data dodania:
2014-05-10 16:59:43
Rozmiar: 676.67 MB
Seedów: 1
Peerów: 0
Pobrano: 6 razy

Komentarze: 0


Egiptolog Kara Cooney podróżuje do najodleglejszych zakątków naszego globu. Swoją podróż rozpoczyna zawsze w Egipcie, gdzie zadaje ważne pytanie dotyczące starożytności. W poszukiwaniu odpowiedzi wyrusza do niezwykłych miejsc - bada znaleziska archeologiczne i spotyka przedstawicieli najstarszych kultur świata. Jej poszukiwania niejednokrotnie prowadzą z powrotem do Egiptu. Dzięki temu mamy okazję poznać dzieje kraju faraonów, a także inne starożytne kultury.

==Torrent==
Kategoria: TV/Seriale » Popularno-Naukowy


Dodał: electroloader
Data dodania:
2014-05-10 16:53:18
Rozmiar: 898.01 MB
Seedów: 1
Peerów: 0
Pobrano: 4 razy

Komentarze: 0


Księga umarłych &#8211; staroegipski zbiór prawie dwustu rozdziałów obejmujących magiczne teksty, rysunki i pieśni, mających ułatwić zmarłemu przejście do raju. Była zapisywana na zwojach papirusu i stanowiła ewolucję wcześniejszych Tekstów Piramid i Tekstów Sarkofagów. Stanowiła najpopularniejszy rodzaj książki w ówczesnych czasach &#8211; w Nowym Państwie każdy, kto był w stanie zapłacić pisarzowi za przepisanie księgi, mógł ją otrzymać. Pisano ją też masowo zostawiając wolne miejsce na wpisanie imienia, co pozwalało dopasowywać każdorazowo księgę do osoby zmarłego.

==Torrent==
Kategoria: TV/Seriale » Popularno-Naukowy


Dodał: electroloader
Data dodania:
2014-05-10 14:33:17
Rozmiar: 11.71 GB
Seedów: 17
Peerów: 37
Pobrano: 42 razy

Komentarze: 0


Gatunek........: Dokumentalny,
Premiera.......: 2011-01-13 (Świat)
Ocena..........: 9,4/10 (70 vote)
Obsada.........: John Hurt

Opis

Idący w ślady "Planety Ziemi" i "Życia" ośmioodcinkowy hit telewizyjny jest wspaniałą opowieścią o niezwykłych, złożonych, nader ważnych, a czasami trudnych związkach człowieka z naturą. Ludzie to najdoskonalsze zwierzęta - najlepiej radzący sobie gatunek na planecie. Od mroźnej Arktyki po parujące lasy deszczowe, od maleńkich wysepek na wielkich oceanach po spieczone słońcem pustynie - ludzie znajdują niezwykłe sposoby, by przystosować się do warunków i przetrwać w najtrudniejszych nawet miejscach. Czynią to wykorzystując swoją niezwykłą odwagę i pomysłowość, ucząc się żyć obok i zaprzęgać do własnych celów inne stworzenia zamieszkujące te nieprzystępne miejsca. "Planeta ludzi" opowiada 80 inspirujących historii, z których wiele nigdy wcześniej nie pojawiało się w telewizji. Towarzyszą im dźwięki inspirowanej odgłosami świata muzyki w kompozycji
[...]

»[Zobacz cały opis

==Torrent==
Kategoria: TV/Seriale » Popularno-Naukowy


Dodał: electroloader
Data dodania:
2014-05-10 00:48:04
Rozmiar: 10.85 GB
Seedów: 15
Peerów: 36
Pobrano: 6 razy

Komentarze: 0


Opis

Program telewizyjny prezentujący historię i rozwój współczesnej broni. Program produkcji amerykańskiej oryginalnie prezentowany na kanale Military Channel, w Polsce natomiast na kanale Discovery World.

Pierwszy sezon był poświęcony określonym broniom np: karabin maszynowy czy czołg, w drugim sezonie producenci skupili się na organizacjach militarnych np: Specnaz czy Special Air Service.

Dane Techniczne

Przykładowe dane:

General
Format : AVI
Format/Info : Audio Video Interleave
File size : 597 MiB
Duration : 44mn 52s
Overall bit rate mode : Variable
Overall bit rate : 1 859 Kbps
Writing application : VirtualDubMod 1.5.4.1 (build 2178/release)
Writing library : VirtualDubMod build 2178/release

Video
ID : 0
Format : MPEG-4 Visual
Format profile : Advanced Simple@L5
Format settings, BVOP : 1
Format settings, QPel : No
Format settings, GMC : No warppoints
Format settings, Matrix : Custom
Codec ID : XVID
Codec ID/Hint : XviD
Duration : 44mn 52s
Bit r
[...]

»[Zobacz cały opis

==Torrent==
Kategoria: TV/Seriale » Popularno-Naukowy


Dodał: electroloader
Data dodania:
2014-05-10 00:47:02
Rozmiar: 10.55 GB
Seedów: 44
Peerów: 58
Pobrano: 15 razy

Komentarze: 0


Opis

Pomimo, że człowiek potrafi już podróżować po kosmosie i dysponuje coraz doskonalszą aparaturą badawczą, wszechświat nadal stanowi dla niego wielką tajemnicę. Choć może go obserwować, badać, a nawet mierzyć, nadal nie potrafi go w pełni ogarnąć. Autorzy szukają odpowiedzi na pytania: czym jest wszechświat, jaki był jego początek i kiedy nastąpił. Opierając się na powszechnie przyjętej przez naukowców teorii Wielkiego Wybuchu, cofają się do początku wszechświata, pierwszych minut i godzin jego istnienia.

Dane Techniczne

Format : AVI
Format/Info : Audio Video Interleave
File size : 647 MiB
Duration : 43mn 30s
Overall bit rate mode : Variable
Overall bit rate : 2 078 Kbps
Writing application : VirtualDubMod 1.5.10.2 (build 2540/release)
Writing library : VirtualDubMod build 2540/release

Video
ID : 0
Format : MPEG-4 Visual
Format profile : Advanced Simple@L5
Format settings, BVOP : 2
Format settings, QPel : No
Format settings, GMC : No warppoints
Format setti
[...]

»[Zobacz cały opis

==Torrent==
Kategoria: TV/Seriale » Popularno-Naukowy


Dodał: electroloader
Data dodania:
2014-05-10 00:45:42
Rozmiar: 7.74 GB
Seedów: 0
Peerów: 80
Pobrano: 8 razy

Komentarze: 0


Opis

Seria przedstawia powstanie zjawisk oraz miejsc na Ziemi.

Dane Techniczne

Format : AVI
Format/Info : Audio Video Interleave
File size : 351 MiB
Duration : 44mn 27s
Overall bit rate : 1 105 Kbps
Writing application : VirtualDubMod 1.5.10.3 | www.virtualdub-fr.org || (build 2550/release)
Writing library : VirtualDubMod build 2550/release

Video
ID : 0
Format : MPEG-4 Visual
Format profile : Advanced Simple@L5
Format settings, BVOP : 1
Format settings, QPel : No
Format settings, GMC : No warppoints
Format settings, Matrix : Default (H.263)
Muxing mode : Packed bitstream
Codec ID : XVID
Codec ID/Hint : XviD
Duration : 44mn 27s
Bit rate : 967 Kbps
Width : 640 pixels
Height : 352 pixels
Display aspect ratio : 16:9
Frame rate : 25.000 fps
Color space : YUV
Chroma subsampling : 4:2:0
Bit depth : 8 bits
Scan type : Progressive
Compression mode : Lossy
Bits/(Pixel*Frame) : 0.172
Stream size : 308 MiB (88%)
Writing library : XviD 62

Audio
ID : 1

[...]

»[Zobacz cały opis

==Torrent==
Kategoria: TV/Seriale » Popularno-Naukowy


Dodał: electroloader
Data dodania:
2014-05-10 00:44:36
Rozmiar: 7.26 GB
Seedów: 9
Peerów: 40
Pobrano: 13 razy

Komentarze: 0


Opis

W XXI wieku loty rakietowe i wyprawy w kosmos mają szansę stać się dla człowieka chlebem powszednim. Program pozwala poznać cechy poszczególnych planet Układu Słonecznego, które w większości znamy jedynie z nazwy. Najbardziej zbliżony do Ziemi pod względem budowy jest Mars, stąd spekulacje o inteligentnych formach życia. Saturn zbudowany jest głównie z gazów, posiada 60 księżyców, a jego pierścienie są bardzo kruche.

Dane Techniczne

Przewodnik Po Planetach - Jeszcze Dalej Niz Pluton 2010 PL.720p.HDTV.XViD.AC3-NOiSE.avi
Format : AVI
Format/Info : Audio Video Interleave
File size : 1.21 GiB
Duration : 44mn 51s
Overall bit rate : 3 856 Kbps
Writing application : VirtualDubMod 1.5.10.2 (build 2540/release)
Writing library : VirtualDub build 32842/release

Video
ID : 0
Format : MPEG-4 Visual
Format profile : Advanced Simple@L5
Format settings, BVOP : 2
Format settings, QPel : No
Format settings, GMC : No warppoints
Format settings, Matrix : Default (H.263)
Mux
[...]

»[Zobacz cały opis

==Torrent==
Kategoria: TV/Seriale » Popularno-Naukowy


Dodał: electroloader
Data dodania:
2014-05-10 00:36:26
Rozmiar: 331.85 MB
Seedów: 0
Peerów: 4
Pobrano: 2 razy

Komentarze: 0


Format : AVI
Format/Info : Audio Video Interleave
File size : 332 MiB
Duration : 24mn 28s
Overall bit rate : 1 896 Kbps
Writing application : Lavf52.57.1

Video
ID : 0
Format : xvid
Codec ID : xvid
Duration : 24mn 28s
Bit rate : 1 501 Kbps
Width : 720 pixels
Height : 576 pixels
Display aspect ratio : 5:4
Frame rate : 25.000 fps
Standard : PAL
Bits/(Pixel*Frame) : 0.145
Stream size : 263 MiB (79%)

Audio
ID : 1
Format : AC-3
Format/Info : Audio Coding 3
Mode extension : CM (complete main)
Format settings, Endianness : Big
Codec ID : 2000
Duration : 24mn 28s
Bit rate mode : Constant
Bit rate : 384 Kbps
Channel count : 2 channels
Channel positions : Front: L R
Sampling rate : 48.0 KHz
Bit depth : 16 bits
Compression mode : Lossy
Stream size : 67.2 MiB (20%)
Alignment : Aligned on interleaves
Interleave, duration : 32 ms (0.80 video frame)
Interleave, preload duration : 32 ms

==Torrent==
Kategoria: TV/Seriale » Popularno-Naukowy


Dodał: electroloader
Data dodania:
2014-05-10 00:35:29
Rozmiar: 367.75 MB
Seedów: 0
Peerów: 3
Pobrano: 4 razy

Komentarze: 0


Format : AVI
Format/Info : Audio Video Interleave
File size : 368 MiB
Duration : 24mn 2s
Overall bit rate : 2 138 Kbps
Writing application : Lavf52.57.1

Video
ID : 0
Format : xvid
Codec ID : xvid
Duration : 24mn 2s
Bit rate : 1 998 Kbps
Width : 720 pixels
Height : 576 pixels
Display aspect ratio : 5:4
Frame rate : 25.000 fps
Standard : PAL
Bits/(Pixel*Frame) : 0.193
Stream size : 344 MiB (93%)

Audio
ID : 1
Format : MPEG Audio
Format version : Version 1
Format profile : Layer 3
Mode : Joint stereo
Mode extension : MS Stereo
Codec ID : 55
Codec ID/Hint : MP3
Duration : 24mn 2s
Bit rate mode : Constant
Bit rate : 128 Kbps
Channel count : 2 channels
Sampling rate : 44.1 KHz
Compression mode : Lossy
Stream size : 22.0 MiB (6%)
Alignment : Aligned on interleaves
Interleave, duration : 26 ms (0.65 video frame)

==Torrent==
Kategoria: TV/Seriale » Popularno-Naukowy


Dodał: electroloader
Data dodania:
2014-05-10 00:34:19
Rozmiar: 310.92 MB
Seedów: 0
Peerów: 3
Pobrano: 6 razy

Komentarze: 0


Format : AVI
Format/Info : Audio Video Interleave
File size : 311 MiB
Duration : 26mn 29s
Overall bit rate : 1 641 Kbps
Writing library : VirtualDub build 24469/release

Video
ID : 0
Format : MPEG-4 Visual
Format profile : Advanced Simple@L5
Format settings, BVOP : 2
Format settings, QPel : No
Format settings, GMC : No warppoints
Format settings, Matrix : Default (H.263)
Muxing mode : Packed bitstream
Codec ID : XVID
Codec ID/Hint : XviD
Duration : 26mn 29s
Bit rate : 863 Kbps
Width : 320 pixels
Height : 240 pixels
Display aspect ratio : 4:3
Frame rate : 25.000 fps
Color space : YUV
Chroma subsampling : 4:2:0
Bit depth : 8 bits
Scan type : Progressive
Compression mode : Lossy
Bits/(Pixel*Frame) : 0.450
Stream size : 164 MiB (53%)
Writing library : XviD 1.1.0 (UTC 2005-11-22)

Audio
ID : 1
Format : PCM
Format settings, Endianness : Little
Format settings, Sign : Signed
Codec ID : 1
Duration : 26mn 29s
Bit rate mode : Constant
Bit rate : 768 Kbps
[...]

»[Zobacz cały opis

==Torrent==
Kategoria: TV/Seriale » Popularno-Naukowy


Dodał: michal630410
Data dodania:
2014-05-08 17:32:44
Rozmiar: 134.14 MB
Seedów: 5
Peerów: 18
Pobrano: 11 razy

Komentarze: 0


...( Info )...

Kategoria - Edukacja
Licencja - Standardowa licencja YouTube

...( Opis )...

Tajemnice pożądania - Ciekawy film dokumentalny przedstawiający sekrety ludzkiego pożądania i jakie reakcje zachodzą w naszym organizmie i co w nas wywołuje taki stan, że pożądamy innej osoby. Warty obejrzenia, polecam. Oceńcie sami:) Zaskakujący i genialny jak dla mnie heh:D testosteron, czerwone latarnie, hormony, czujniki.... i te sprawy polecam obejrzenie mężczyznom jak i kobietom:)

  

Przeglądaj
1 - 50 | 51 - 100 | 101 - 109
<< Poprzednia      Następna >>

stat4u Najlepsze strony Torrentowe Torrenty