Kategorie
Ranking
RSS
Programy

Statystyki
Użytkowników:
Zarejestrowanych wczoraj:
Zarejestrowanych dzisiaj:
Torrentów:
Dodanych wczoraj:
Dodanych dzisiaj:
Warezów:
Dodanych wczoraj:
Dodanych dzisiaj:
131,641
87
4
138,623
159
12
10,955
40
0
Ostatnie 30
Popularne
w Listopadzie
Przeglądaj
<< Poprzednia      Następna >>
1 - 50 | 51 - 100 | 101 - 150 | ... | 851 - 900 | 901 - 950 | 951 - 976
Gatunki
Show/Hide [Pokaż/Ukryj]
Po kliknięciu ”Pokaż/Ukryj” możesz wyszukać pozycję z wybranymi gatunkami
(Pamiętaj że np. filmy mogą mieć więcej niż jeden gatunek)

Wybrane gatunki z kategorii: TV/Seriale

Thriller (983),
==Torrent==
Kategoria: TV/Seriale » Thriller


Dodał: Hytry1
Data dodania:
2020-11-23 12:44:33
Rozmiar: 501.81 MB
Seedów: 7
Peerów: 161
Pobrano: 307 razy

Komentarze: 0


..::(Info)::..

*Kraj produkcji: USA
*Gatunek filmu: Dramat, Thriller
*Data premiery: 2020
*Reżyseria: David E. Kelley

..::(Opis)::..

„Od nowa” to wciągający miniserial z gwiazdorską obsadą. Przedstawia historię Grace Fraser – cenionej terapeutki, której życie wywraca się do góry nogami w ciągu jednej nocy.

..::(Obsada)::..

*Nicole Kidman jako Grace Fraser
*Hugh Grant jako Jonathan Fraser
*Édgar Ramírez jako detektyw Joe Mendoza
*Noah Jupe jako Henry Fraser

..::(Dane Techniczne)::..

Format : AVI at 1.673 kb/s
Length : 562 MiB for 46 min 56s 720 ms

Video #0 : MPEG-4 Visual at 1.470 kb/s
Aspect : 854 x 480 (1.779) at 25.000 fps

Audio #0 : AC-3 at 192 kb/s
Infos : 2 kanały, 44,1 kHz

==Torrent==
Kategoria: TV/Seriale » Thriller


Dodał: raju
Data dodania:
2020-11-22 14:57:41
Rozmiar: 25.14 GB
Seedów: 116
Peerów: 383
Pobrano: 96 razy

Komentarze: 0


...( Info )...
Produkcja: USA
Gatunek: Thriller
Data premiery serialu: 31.10.2018 r. - Świat
Czas trwania odcinka około 50 min.
Reżyseria: Liz Friedlander
Scenariusz: Kevin Williamson

https://www.filmweb.pl/serial/Opowiedz+mi+bajk%C4%99-2018-801292
https://www.imdb.com/title/tt7695916/
https://fdb.pl/film/859420-opowiedz-mi-bajke
https://naekranie.pl/seriale/tell-a-story

...( Opis )...
Twórcy produkcji biorą na warsztat najbardziej lubiane bajki i zamieniają je w mroczny, psychologiczny thriller. Składający się z dziesięciu odcinków drugi sezon obrazu przedstawia nowych bohaterów i eksploruje historię legendarnych trzech księżniczek znanych z “Pięknej i bestii”, “Śpiącej królewny” i “Kopciuszka”. Produkcja śledzi losy członków rodziny Pruittów, którzy doświadczają miłości, straty, romansu w kultowym muzycznym mieście Nashville w stanie Tennessee.

...( Obsada )...
Danielle Campbell ... Kayla Powell
Paul Wesley ... Tucker Reed
James Wolk ... Jordan Evans
Billy Magn
[...]

»[Zobacz cały opis

==Torrent==
Kategoria: TV/Seriale » Thriller


Dodał: raju
Data dodania:
2020-11-22 14:57:35
Rozmiar: 17.69 GB
Seedów: 58
Peerów: 441
Pobrano: 125 razy

Komentarze: 0


...( Info )...
Produkcja: USA
Gatunek: Thriller
Data premiery serialu: 31.10.2018 r. - Świat
Czas trwania odcinka około 50 min.
Reżyseria: Liz Friedlander
Scenariusz: Kevin Williamson

https://www.filmweb.pl/serial/Opowiedz+mi+bajk%C4%99-2018-801292
https://www.imdb.com/title/tt7695916/
https://fdb.pl/film/859420-opowiedz-mi-bajke
https://naekranie.pl/seriale/tell-a-story

...( Opis )...
Twórcy produkcji biorą na warsztat najbardziej lubiane bajki i zamieniają je w mroczny, psychologiczny thriller. Składający się z dziesięciu odcinków drugi sezon obrazu przedstawia nowych bohaterów i eksploruje historię legendarnych trzech księżniczek znanych z “Pięknej i bestii”, “Śpiącej królewny” i “Kopciuszka”. Produkcja śledzi losy członków rodziny Pruittów, którzy doświadczają miłości, straty, romansu w kultowym muzycznym mieście Nashville w stanie Tennessee.

...( Obsada )...
Danielle Campbell ... Kayla Powell
Paul Wesley ... Tucker Reed
James Wolk ... Jordan Evans
Billy Magn
[...]

»[Zobacz cały opis

==Torrent==
Kategoria: TV/Seriale » Thriller


Dodał: Hytry1
Data dodania:
2020-11-21 14:45:12
Rozmiar: 699.91 MB
Seedów: 988
Peerów: 197
Pobrano: 136 razy

Komentarze: 0


..::(Info)::..

*Kraj produkcji: Węgry
*Gatunek filmu: Thriller
*Data premiery: 11 października 2019 (świat)
*Reżyseria: Béla Bagota

..::(Opis)::..

Historia rozpoczyna się podczas chaosu rewolucji rumuńskiej w 1989 roku. W górniczym miasteczku Valan w Transylwanii znika 13-letnia Juli. Nikt nie może odnaleźć jej żywej ani martwej. 22 lata później jej brat Peter, policjant, prowadzi śledztwo dotyczące handlu ludźmi w Braszowie. Detektyw poświęcił swoje życie na szukanie zaginionych kobiet. W każdej dziewczynce, którą uda mu się odnaleźć, widzi twarz siostry. Tymczasem dostaje informację, że w rodzinnym miasteczku, wśród ośnieżonych stoków, odnaleziono zwłoki dziewczyny. Może to szczątki jego siostry? Po długiej nieobecności wraca do Valan, gdzie musi zmierzyć się z cieniami przeszłości, które nawiedzały go od dzieciństwa. Rozwiązanie zagadki może pójść w stronę, której nikt nie przewidział.

..::(Obsada)::..

*Csaba Krisztik jako Péter
*András Hatházi jako János
*Gá
[...]

»[Zobacz cały opis

==Torrent==
Kategoria: TV/Seriale » Thriller


Dodał: Hytry1
Data dodania:
2020-11-16 10:38:33
Rozmiar: 561.70 MB
Seedów: 0
Peerów: 0
Pobrano: 366 razy

Komentarze: 0


..::(Info)::..

*Kraj produkcji: USA
*Gatunek filmu: Dramat, Thriller
*Data premiery: 2020
*Reżyseria: David E. Kelley

..::(Opis)::..

„Od nowa” to wciągający miniserial z gwiazdorską obsadą. Przedstawia historię Grace Fraser – cenionej terapeutki, której życie wywraca się do góry nogami w ciągu jednej nocy.

..::(Obsada)::..

*Nicole Kidman jako Grace Fraser
*Hugh Grant jako Jonathan Fraser
*Édgar Ramírez jako detektyw Joe Mendoza
*Noah Jupe jako Henry Fraser

..::(Dane Techniczne)::..

Format : AVI at 1.673 kb/s
Length : 562 MiB for 46 min 56s 720 ms

Video #0 : MPEG-4 Visual at 1.470 kb/s
Aspect : 854 x 480 (1.779) at 25.000 fps

Audio #0 : AC-3 at 192 kb/s
Infos : 2 kanały, 44,1 kHz

==Torrent==
Kategoria: TV/Seriale » Thriller


Dodał: Patryczek29
Data dodania:
2020-11-15 14:37:27
Rozmiar: 24.50 GB
Seedów: 0
Peerów: 0
Pobrano: 26 razy

Komentarze: 0


...( Opis )...

Serial opowiadający o losach pary z Filadelfii, pogrążonej w żalu po niewyobrażalnej tragedii, która powoduje rozłam w małżeństwie i pozwala tajemniczej sile wkraść się do ich domu.

...( Dane Techniczne )...

Video
ID : 1
Format : AVC
Format/Info : Advanced Video Codec
Format profile : High@L4
Format settings : CABAC / 4 Ref Frames
Format settings, CABAC : Yes
Format settings, Reference frames : 4 frames
Codec ID : V_MPEG4/ISO/AVC
Duration : 36 min 56 s
Bit rate : 9 969 kb/s
Width : 1 920 pixels
Height : 960 pixels
Display aspect ratio : 2.000
Frame rate mode : Constant
Frame rate : 23.976 (24000/1001) FPS
Color space : YUV
Chroma subsampling : 4:2:0
Bit depth : 8 bits
Scan type : Progressive
Bits/(Pixel*Frame) : 0.226
Stream size : 2.57 GiB (93%)
Language : English
Default : Yes
Forced : No
Color range : Limited
Color primaries : BT.709
Transfer characteristics : BT.709
Matrix coefficients : BT.709

Audio
ID : 2
Format : E-AC-3 JO
[...]

»[Zobacz cały opis

==Torrent==
Kategoria: TV/Seriale » Thriller


Dodał: Wilu75
Data dodania:
2020-11-13 16:02:16
Rozmiar: 12.35 GB
Seedów: 171
Peerów: 236
Pobrano: 160 razy

Komentarze: 0


...( Info )...

Tytuł: Słudzy Króla Midasa - Los favoritos de Midas / Sezon 1 [2020] [Epizodów:6]
Ocena: Filmweb - 5.0/10 (1)
Gatunek: Kryminał, Dramat, Thriller
Produkcja: Hiszpania
Stacja telewizyjna: Netflix
Data premiery: 13.11.2020 - Świat
Czas trwania odcinka około 49 min.
Reżyseria: Mateo Gil
Scenariusz: Mateo Gil, Miguel Barros, Arantxa Cuesta, David Muñoz

...( Opis )...

Akcja tego serialu, inspirowanego opowiadaniem Jacka Londona pod tym samym tytułem, rozgrywa się we współczesnym Madrycie. Ktoś szantażuje wpływowego biznesmena, Victora Genovésa (Luis Tosar). Jeśli nie zgodzi się on zapłacić dużej sumy pieniędzy, samozwańczy Słudzy Króla Midasa zabiją w wyznaczonym miejscu i czasie przypadkową osobę i będą nadal zabijać, aż osiągną swój cel. Ilu ludzi musi zginąć, aby Victor się ugiął?

...( Obsada )...

Luis Tosar .... Víctor Genovés
Carlos Blanco ....
Guillermo Toledo ....
Marta Milans ....
Marta Belmonte ....
Bea Segura ....
Adolfo Fernández .
[...]

»[Zobacz cały opis

==Torrent==
Kategoria: TV/Seriale » Thriller


Dodał: Jordan-83
Data dodania:
2020-11-13 10:48:51
Rozmiar: 2.16 GB
Seedów: 0
Peerów: 0
Pobrano: 130 razy

Komentarze: 1


...( Info )...

Produkcja: Hiszpania
Gatunek: Thriller
Twórca: Mateo Gil, Miguel Barros
Platforma: Netflix
Premiera: 13 listopada 2020

...( Opis )...

Milioner dostaje list z pogróżkami i musi podjąć decyzję, od której zależy czyjeś życie. Inspirowany opowiadaniem Jacka Londona serial osadzony we współczesnym Madrycie.

...( Obsada )...

Luis Tosar ... Víctor Genovés
Marta Belmonte ... Mónica Báez
Willy Toledo ... inspektor Conte
Elena Irureta ... Teresa Jiménez
Adolfo Fernández ... Mauro
Fernando Barona ... Diego Rocal

...( Dane Techniczne )...

Mała lega wideo w 1 odc pomiędz 2 a 4 minutą

Format : MPEG-4 at 1.022 kb/s
Length : 379 MiB for 51 min 50s 315 ms

Video #0 : AVC at 923 kb/s
Aspect : 1280 x 720 (1.778) at 25.000 fps

Audio #0 : AAC at 96,0 kb/s
Infos : 2 kanały, 48,0 kHz

==Torrent==
Kategoria: TV/Seriale » Thriller


Dodał: Wilu75
Data dodania:
2020-11-12 09:37:34
Rozmiar: 3.47 GB
Seedów: 5
Peerów: 0
Pobrano: 165 razy

Komentarze: 0


...( Info )...

Tytuł: Ziemia niczyja - No Man's Land / Sezon 01 [2020] [Epizodów:8]
Ocena: IMDB - 8.0/10 (167), Filmweb - 7.7/10 (78)
Gatunek: Dramat, Thriller, Wojenny
Produkcja: Belgia, Francja, Izrael
Stacja telewizyjna: HBO
Data premiery serialu: 18.09.2020 - Świat
Czas trwania odcinka około 43 min.
Reżyseria: Oded Ruskin
Scenariusz: Amit Cohen, Ron Leshem, Eitan Mansuri, Maria Feldman

...( Opis )...

Antoine szuka w Syrii swojej siostry, która jest uważana za zmarłą. Odkrywając tajemnice kawałek po kawałku, chłopak łączy siły z jednostką zagorzałych kurdyjskich bojowniczek, które są największym koszmarem ISIS i podróżuje z nimi po terytorium okupowanym przez wroga. Ścieżki Antoine'a przecinają się z poszukiwaczami przygód, anarchistami, szpiegami, ale też niewinnymi ofiarami wojny.

...( Obsada )...

Félix Moati .... Antoine Habert
Mélanie Thierry .... Anna Habert
James Purefoy .... Stanley
Souheila Yacoub .... Sarya Dogan
Jo Ben Ayed .... Iyad Bel Tagi
Ja
[...]

»[Zobacz cały opis

==Torrent==
Kategoria: TV/Seriale » Thriller


Dodał: Hytry1
Data dodania:
2020-11-10 13:57:14
Rozmiar: 1.04 GB
Seedów: 651
Peerów: 107
Pobrano: 426 razy

Komentarze: 0


Od nowa - The Undoing (2020) [S01E03] [720p] [HDTV] [XViD] [AC3-H1] [Lektor PL]

..::(Info)::..

*Kraj produkcji: USA
*Gatunek filmu: Dramat, Thriller
*Data premiery: 2020
*Reżyseria: David E. Kelley

..::(Opis)::..

„Od nowa” to wciągający miniserial z gwiazdorską obsadą. Przedstawia historię Grace Fraser – cenionej terapeutki, której życie wywraca się do góry nogami w ciągu jednej nocy.

..::(Obsada)::..

*Nicole Kidman jako Grace Fraser
*Hugh Grant jako Jonathan Fraser
*Édgar Ramírez jako detektyw Joe Mendoza
*Noah Jupe jako Henry Fraser

..::(Dane Techniczne)::..

Format : AVI at 2.889 kb/s
Length : 1,04 GB for 51 min 27s 360 ms

Video #0 : MPEG-4 Visual at 2.683 kb/s
Aspect : 1280 x 720 (1.778) at 25.000 fps

Audio #0 : AC-3 at 192 kb/s
Infos : 2 kanały, 48,0 kHz

==Torrent==
Kategoria: TV/Seriale » Thriller


Dodał: Hytry1
Data dodania:
2020-11-09 14:18:42
Rozmiar: 1.64 GB
Seedów: 255
Peerów: 107
Pobrano: 132 razy

Komentarze: 0


..::(Info)::..

*Kraj produkcji: Australia / Nowa Zelandia / USA
*Gatunek filmu: Thriller
*Data premiery: 1 października 2019 r
*Reżyseria: David Hubbard

..::(Opis)::..

Policja nad jeziorem odnajduje zwłoki, co wzbudza strach w mieszkańcach miasteczka, którzy obawiają się, że powrócił seryjny morderca. Dochodzenie prowadzi Mike Serrato (Aden Young). Sprawą zainteresowany jest również pedagog szkolny, Leo Doyle (Sam Trammell). Śledztwo budzi w mężczyznach wszystkie demony z przeszłości, co sprawia, że obaj znajdą się na trudnym

..::(Obsada)::..

*Aden Young jako detektyw sierżant Mike Serrato
*Sam Trammell jako Leo Doyle
*Finn Little jako Jake Serrato
*Simone Kessell jako Paige Serrato

..::(Dane Techniczne)::..

Format : AVI at 2.172 kb/s
Length : 712 MiB for 45 min 49s 231 ms

Video #0 : MPEG-4 Visual at 1.970 kb/s
Aspect : 854 x 480 (1.779) at 23.976 fps

==Torrent==
Kategoria: TV/Seriale » Thriller


Dodał: gregpoli1981
Data dodania:
2020-11-05 00:46:32
Rozmiar: 3.98 GB
Seedów: 0
Peerów: 14
Pobrano: 92 razy

Komentarze: 0


...( Info )...

*Gatunek serialu: Thriller
*Kraj produkcji: Chile
*Data premiery: 10 lipiec 2020 (świat),
*Reżyseria: Sergio Castro / Tony Croll / Lucía Puenzo
*Scenariusz: Leonel D'Agostino / Paula del Fierro / Enrique Videla

...( Opis )...

Blanca - młoda feministka, która zorganizowała w szkole protest przeciw zachowaniu jednego z nauczycieli - nagle znika bez śladu. Niebawem w internecie zostaje umieszczone nagranie dokumentujące zbiorowy gwałt na tej dzielnej dziewczynie. Badając sprawę, grupa policjantek odkrywa mizoginiczny spisek. Wstrząsający serial kryminalny produkcji chilijskiej.

FILMWEB: https://www.filmweb.pl/serial/Sfora-2020-857196

...( Obsada )...

*Antonia Zegers - Olivia Fernández
*María Gracia Omegna - Carla Farías
*Daniela Vega - Elisa Murillo
*Alberto Guerra - Manuel

...( Dane Techniczne )...

Format : AVI
Length : 749 MiB at 52 min, 3,97 GB cały sezon

Video #0 : Xvid at 1981 kb/s
Aspect : 720x352 at 25.000 fps

Audio #0 : 384 kb/
[...]

»[Zobacz cały opis

==Torrent==
Kategoria: TV/Seriale » Thriller


Dodał: gregpoli1981
Data dodania:
2020-11-05 00:44:05
Rozmiar: 286.27 MB
Seedów: 8
Peerów: 0
Pobrano: 23 razy

Komentarze: 0


...( Info )...

*Gatunek serialu: Thriller
*Kraj produkcji: Chile
*Data premiery: 10 lipiec 2020 (świat),
*Reżyseria: Sergio Castro / Tony Croll / Lucía Puenzo
*Scenariusz: Leonel D'Agostino / Paula del Fierro / Enrique Videla

...( Opis )...

Blanca - młoda feministka, która zorganizowała w szkole protest przeciw zachowaniu jednego z nauczycieli - nagle znika bez śladu. Niebawem w internecie zostaje umieszczone nagranie dokumentujące zbiorowy gwałt na tej dzielnej dziewczynie. Badając sprawę, grupa policjantek odkrywa mizoginiczny spisek. Wstrząsający serial kryminalny produkcji chilijskiej.

FILMWEB: https://www.filmweb.pl/serial/Sfora-2020-857196

...( Obsada )...

*Antonia Zegers - Olivia Fernández
*María Gracia Omegna - Carla Farías
*Daniela Vega - Elisa Murillo
*Alberto Guerra - Manuel

...( Dane Techniczne )...

General : Sfora - La.Jauria.S01E07.PL.mp4
Format : MPEG-4 at 916 kb/s
Length : 286 MiB for 43 min 43 s 0 ms

Video #0 : AVC at 781 kb/s
Aspec
[...]

»[Zobacz cały opis

==Torrent==
Kategoria: TV/Seriale » Thriller


Dodał: gregpoli1981
Data dodania:
2020-11-05 00:37:46
Rozmiar: 349.54 MB
Seedów: 20
Peerów: 1
Pobrano: 27 razy

Komentarze: 0


...( Info )...

*Gatunek serialu: Thriller
*Kraj produkcji: Kanada
*Data premiery: 3 sierpień 2019 (świat),
*Reżyser: Paul Shapiro
*Scenariusz: Scarlett Lacey

...( Opis )...

Heaven (Annalise Basso) zamieszkuje w Bostonie u swoich zamożnych dziadków, Jillian (Kelly Rutherford ) i Tony'ego (Jason Priestley) Tattertonów. Liczy, że dzięki temu dołączy do elitarnego grona bogaczy. Wkrótce przekonuje się, że takie życie posiada również ciemną stronę.

programtv.onet.pl: https://programtv.onet.pl/tv/mroczny-aniol-402762

...( Obsada )...

*Annalise Basso - Heaven Leigh Van Voreen Casteel
*Jason Priestley - Tony Tatterton
*Kelly Rutherford - Jillian Van Voreen Tatterton
*Jason Cermak - Troy Tatterton
*James Rittinger - Logan Stonewall

...( Dane Techniczne )...

General : Mroczny Anioł - V.C. Andrews' Heaven - Dark Angel (2019).mp4
Format : MPEG-4 at 580 kb/s
Length : 349 MiB for 1 h 24 min 13 s 250 ms

Video #0 : AVC at 480 kb/s
Aspect : 480 x 266 (1.801) at 24.
[...]

»[Zobacz cały opis

==Torrent==
Kategoria: TV/Seriale » Thriller


Dodał: gregpoli1981
Data dodania:
2020-11-05 00:21:00
Rozmiar: 286.27 MB
Seedów: 12
Peerów: 0
Pobrano: 17 razy

Komentarze: 0


...( Info )...

*Gatunek serialu: Thriller
*Kraj produkcji: Chile
*Data premiery: 10 lipiec 2020 (świat),
*Reżyseria: Sergio Castro / Tony Croll / Lucía Puenzo
*Scenariusz: Leonel D'Agostino / Paula del Fierro / Enrique Videla

...( Opis )...

Blanca - młoda feministka, która zorganizowała w szkole protest przeciw zachowaniu jednego z nauczycieli - nagle znika bez śladu. Niebawem w internecie zostaje umieszczone nagranie dokumentujące zbiorowy gwałt na tej dzielnej dziewczynie. Badając sprawę, grupa policjantek odkrywa mizoginiczny spisek. Wstrząsający serial kryminalny produkcji chilijskiej.

FILMWEB: https://www.filmweb.pl/serial/Sfora-2020-857196

...( Obsada )...

*Antonia Zegers - Olivia Fernández
*María Gracia Omegna - Carla Farías
*Daniela Vega - Elisa Murillo
*Alberto Guerra - Manuel

...( Dane Techniczne )...

Format : AVI
Length : 749 MiB at 52 min, 3,97 GB cały sezon

Video #0 : Xvid at 1981 kb/s
Aspect : 720x352 at 25.000 fps

Audio #0 : 384 kb/
[...]

»[Zobacz cały opis

==Torrent==
Kategoria: TV/Seriale » Thriller


Dodał: gregpoli1981
Data dodania:
2020-11-05 00:19:01
Rozmiar: 8.18 GB
Seedów: 12
Peerów: 2
Pobrano: 38 razy

Komentarze: 0


...( Info )...

*Gatunek serialu: Dramat, Kryminał, Thriller
*Kraj produkcji: Islandia
*Data premiery: 13 luty 2015 (świat),
*Twórca: Baltasar Kormákur

...( Opis )...

Małe miasto rybackie w Islandii. Podczas gwałtownego sztormu policja usiłuje rozwiązać sprawę morderstwa.

FILMWEB: https://www.filmweb.pl/serial/W+pu%C5%82apce-2015-753852

...( Obsada )...

*Ólafur Darri Ólafsson - Andri Ólafsson
*Ilmur Kristjánsdóttir - Hinrika Kristjánsdóttir
*Ingvar Sigurðsson - Ásgeir Þórarinsson
*Hans Tórgarð - Dvalinn Knudsson
*Lilja Nótt Þórarinsdóttir - Maria
*Steinunn Ólína Þorsteinsdóttir - Aldís Eiríksdóttir

...( Dane Techniczne )...

Format : AVI
Length : 825 MiB at 52 min

Video #0 : Xvid at 1877 kb/s
Aspect : 720x400 at 25.000 fps

Audio #0 : AC-3, 384 kb/s
Infos : 2 kanały, 48 kHz

==Torrent==
Kategoria: TV/Seriale » Thriller


Dodał: Jordan-83
Data dodania:
2020-11-04 16:50:51
Rozmiar: 13.16 GB
Seedów: 0
Peerów: 0
Pobrano: 69 razy

Komentarze: 0


...( Info )...

Produkcja: Taiwan
Gatunek: Drama, Thriller
Platforma: Netflix
Premiera: 30 April 2020

...( Opis )...

Kryminolog z zespołem Aspergera odkrywa powiązania swojej córki z tajemniczymi morderstwami i stawia wszystko na jedną kartę, aby rozwiązać sprawę.

...( Obsada )...

Joseph Chang as Fang Yi-Jen
Ann Hsu as Hsu Hai-Yin
Jason Wang as Chao Cheng-Kuan
Ruby Lin as Li Ya-Jun
River Huang as Yu Cheng-Hao
Moon Lee as Chiang Hsiao-Meng, Fang Yi-Jen's daughter
Ning Ding as Su Ke-Yun
Rexen Cheng as Zhuang Bing-Yao
Chen Chia-Kuei as Zhang Cong-Jian
Joseph Hsia as Xia Jing-Ting

...( Dane Techniczne )...

Video
ID : 1
Format : AVC
Format/Info : Advanced Video Codec
Format profile : Main@L4
Format settings : CABAC / 3 Ref Frames
Format settings, CABAC : Yes
Format settings, Reference frames : 3 frames
Codec ID : V_MPEG4/ISO/AVC
Duration : 1 h 3 min
Bit rate mode : Variable
Bit rate : 4 220 kb/s
Maximum bit rate : 6 330 kb/s
Width : 1 920 pixels
[...]

»[Zobacz cały opis

==Torrent==
Kategoria: TV/Seriale » Thriller


Dodał: Wilu75
Data dodania:
2020-11-04 13:49:11
Rozmiar: 13.55 GB
Seedów: 336
Peerów: 762
Pobrano: 331 razy

Komentarze: 0


...( Info )...

Tytuł: Ziemia niczyja - No Man's Land / Sezon 01 [2020] [Epizodów:8]
Ocena: IMDB - 8.0/10 (167), Filmweb - 7.7/10 (78)
Gatunek: Dramat, Thriller, Wojenny
Produkcja: Belgia, Francja, Izrael
Stacja telewizyjna: HBO
Data premiery serialu: 18.09.2020 - Świat
Czas trwania odcinka około 43 min.
Reżyseria: Oded Ruskin
Scenariusz: Amit Cohen, Ron Leshem, Eitan Mansuri, Maria Feldman

...( Opis )...

Antoine szuka w Syrii swojej siostry, która jest uważana za zmarłą. Odkrywając tajemnice kawałek po kawałku, chłopak łączy siły z jednostką zagorzałych kurdyjskich bojowniczek, które są największym koszmarem ISIS i podróżuje z nimi po terytorium okupowanym przez wroga. Ścieżki Antoine'a przecinają się z poszukiwaczami przygód, anarchistami, szpiegami, ale też niewinnymi ofiarami wojny.

...( Obsada )...

Félix Moati .... Antoine Habert
Mélanie Thierry .... Anna Habert
James Purefoy .... Stanley
Souheila Yacoub .... Sarya Dogan
Jo Ben Ayed .... Iyad Bel Tagi
Ja
[...]

»[Zobacz cały opis

==Warez==
Kategoria: TV/Seriale » Thriller


Dodał: NaTiA
Data dodania:
2020-11-03 17:34:55

Komentarze: 0

...( Info )...

twórca: Eitan Mansuri, Maria Feldman
gatunek: Dramat, Thriller
produkcja: Belgia / Francja / Izrael

...( Opis )...

Młody Francuz łączy siły z jednostką kurdyjskich bojowniczek i podróżuje po ogarniętej wojną Syrii w poszukiwaniu swojej siostry.

...( Obsada )...
Félix Moati; Antoine Habert
Mélanie Thierry: Anna Habert
James Purefoy: Stanley
Souheila Yacoub: Sarya Dogan

...( Dane Techniczne )...

Format : Matroska at 1.399 kb/s
Length : 432 MiB for 43 min 7s 0 ms

Video #0 : AVC at 1.100 kb/s
Aspect : 720 x 360 (2.000) at 25.000 fps

Audio #0 : AAC at 315 kb/s
Infos : 2 kanały, 48,0 kHz
Language : pl

==Torrent==
Kategoria: TV/Seriale » Thriller


Dodał: topp2p
Data dodania:
2020-11-03 10:44:57
Rozmiar: 24.16 GB
Seedów: 3
Peerów: 0
Pobrano: 84 razy

Komentarze: 0


...( Info )...

Tytuł: Kalifat - Caliphate / Sezon 1 [2020] [Epizodów:8]
=====================================================
Produkcja: Szwecja
Gatunek: Dramat, Thriller
Data premiery serialu: 12 stycznia 2020 (Świat)
Reżyseria: Goran Kapetanovic
Scenariusz: Wilhelm Behrman, Niklas Rockström

...( Opis )...

Planowany atak ISIS na Szwecję łączy losy grupy kobiet, w tym matki na zakręcie, natchnionej studentki i ambitnej policjantki.

...( Obsada )...

★ Gizem Erdogan .... Pervin
★ Amed Bozan .... Husam
★ Aliette Opheim .... Fatima
★ Albin Grenholm .... Calle
★ Nora Rios .... Sulle
★ Amanda Sohrabi .... Kerima
★ Lancelot Ncube .... Ibbe
★ William Legue .... Omar

...( Dane Techniczne )...

Format      : Matroska at 9 130 kb/s
Length      : 2.98 GiB for 46 min 46 s 688 ms

Video #0     : AVC at 8 692 kb/s
Aspect      : 1920 x 1080 (1.778) at 25.000 fps

Audio #0     : AC-3 at 256 kb/s
Infos       : 2 channels, 48.0 kHz
[...]

»[Zobacz cały opis

==Torrent==
Kategoria: TV/Seriale » Thriller


Dodał: AlicjaG
Data dodania:
2020-11-03 01:20:47
Rozmiar: 147.63 GB
Seedów: 12
Peerów: 221
Pobrano: 60 razy

Komentarze: 1


...( Info )...

Produkcja: USA
Gatunek: Thriller, Polityczny
Premiera: Stany Zjednoczone 21 września 2016
Polska 22 września 2016
Twórca: David Guggenheim
Liczba odcinków: 53
Liczba serii: 3

...( Opis )...

Kiefer Sutherland wciela się w Toma Kirkmana, jednego z członków amerykańskiego gabinetu z niższego szczebla, który nieoczekiwanie zostaje prezydentem po katastrofalnym ataku, jaki miał miejsce podczas State of the Union w Waszyngtonie.

...( Obsada )...

★ Kiefer Sutherland .... Tom Kirkman
★ Adan Canto .... Aaron Shore
★ Italia Ricci .... Emily Rhodes
★ Kal Penn .... Seth Wright
★ Maggie Q .... Hannah Wells
★ LaMonica Garrett .... Mike Ritter
★ Natascha McElhone .... Alex Kirkman
★ Paulo Costanzo .... Lyor Boone

...( Dane Techniczne )...

Format : Matroska at 10,1 Mb/s
Length : 3,02 GB for 42 min 42s 18 ms

Video #0 : AVC at 9.475 kb/s
Aspect : 1920 x 1080 (1.778) at 23.976 fps

Audio #0 : AC-3 at 640 kb/s
Infos : 6 kanałów, 48,0 kHz
Language
[...]

»[Zobacz cały opis

==Torrent==
Kategoria: TV/Seriale » Thriller


Dodał: Hytry1
Data dodania:
2020-11-02 23:06:09
Rozmiar: 1.35 GB
Seedów: 608
Peerów: 204
Pobrano: 521 razy

Komentarze: 1


..::(Info)::..

*Kraj produkcji: USA
*Gatunek filmu: Dramat, Thriller
*Data premiery: 2020
*Reżyseria: David E. Kelley

..::(Opis)::..

„Od nowa” to wciągający miniserial z gwiazdorską obsadą. Przedstawia historię Grace Fraser – cenionej terapeutki, której życie wywraca się do góry nogami w ciągu jednej nocy.

..::(Obsada)::..

*Nicole Kidman jako Grace Fraser
*Hugh Grant jako Jonathan Fraser
*Édgar Ramírez jako detektyw Joe Mendoza
*Noah Jupe jako Henry Fraser

..::(Dane Techniczne)::..

Format : AVI at 1.790 kb/s
Length : 621 MiB for 48 min 32s 200 ms

Video #0 : MPEG-4 Visual at 1.588 kb/s
Aspect : 854 x 480 (1.779) at 25.000 fps

Audio #0 : AC-3 at 192 kb/s
Infos : 2 kanały, 44,1 kHz

==Torrent==
Kategoria: TV/Seriale » Thriller


Dodał: Jordan-83
Data dodania:
2020-10-30 18:08:30
Rozmiar: 29.33 GB
Seedów: 62
Peerów: 44
Pobrano: 124 razy

Komentarze: 0


...( Info )...

Produkcja: USA, Israel
Gatunek: Drama | Thriller
Twórcy: Philip Kaufman
Platforma: Apple TV +
Premiera: 22 Jun. 2020

...( Opis )...

Agentka Mossadu pracuje pod przykrywką w Teheranie. Gdy jej misja kończy się porażką musi sama zorganizować ucieczkę.

...( Dane Techniczne )...

Video
ID : 1
Format : AVC
Format/Info : Advanced Video Codec
Format profile : High@L4
Format settings : CABAC / 5 Ref Frames
Format settings, CABAC : Yes
Format settings, Reference frames : 5 frames
Codec ID : V_MPEG4/ISO/AVC
Duration : 50 min 14 s
Bit rate : 10.2 Mb/s
Width : 1 920 pixels
Height : 804 pixels
Display aspect ratio : 2.40:1
Frame rate mode : Constant
Frame rate : 23.976 (24000/1001) FPS
Color space : YUV
Chroma subsampling : 4:2:0
Bit depth : 8 bits
Scan type : Progressive
Bits/(Pixel*Frame) : 0.276
Stream size : 3.58 GiB (93%)
Default : Yes
Forced : No
Color range : Limited
Color primaries : BT.709
Transfer characteristics : BT.709
Matrix
[...]

»[Zobacz cały opis

==Torrent==
Kategoria: TV/Seriale » Thriller


Dodał: Hytry1
Data dodania:
2020-10-30 17:26:43
Rozmiar: 757.73 MB
Seedów: 54
Peerów: 24
Pobrano: 76 razy

Komentarze: 0


..::(Info)::..

*Kraj produkcji: Finlandia
*Gatunek filmu: Thriller
*Data premiery: 2019
*Reżyseria: Katri Manninen, Antti-Jussi Annila

..::(Opis)::..

W latach 50. XX wieku najgorętszym miejscem zimnej wojny były Helsinki, gdzie zarówno KGB, jak i CIA starały się kontrolować Finlandię. W miarę narastania globalnych napięć między mocarstwami grupa operacyjna fińskich służb specjalnych Pięść stara się zachować niezależność swojego kraju i zjednoczenie zespołu. Nowy członek grupy stopniowo poznaje prawdę o swojej przeszłości, zaś wybory prezydenckie w Finlandii zbliżają się wielkimi krokami. Serial to międzynarodowy thriller szpiegowski, który opowiada historię zespołu wywiadowczego. Jego misją jest obrona niepodległości Finlandii bez względu na koszty.

..::(Obsada)::..

*Emmi Parviainen jako Helena Korhonen
*Olavi Uusivirta jako Julius Boije
*Sampo Sarkola jako Olavi Suominen
*Katja Küttner jako Aune Lyytinen

..::(Dane Techniczne)::..

Format : AVI at 2.208 kb
[...]

»[Zobacz cały opis

==Torrent==
Kategoria: TV/Seriale » Thriller


Dodał: Jordan-83
Data dodania:
2020-10-30 11:52:56
Rozmiar: 1.28 GB
Seedów: 0
Peerów: 0
Pobrano: 141 razy

Komentarze: 0


...( Info )...

Produkcja: USA, Israel
Gatunek: Drama | Thriller
Twórcy: Philip Kaufman
Platforma: Apple TV +
Premiera: 22 Jun. 2020

...( Opis )...

Agentka Mossadu pracuje pod przykrywką w Teheranie. Gdy jej misja kończy się porażką musi sama zorganizować ucieczkę.

...( Dane Techniczne )...

2020-10-30
title: Five Hours Until the Bombing Run
source: apple.com
size: 1.3 GiB
runtime: 00:49:51.200
resolution: 1482 x 620
bitrate: 3,667 kb/s
audio: E-AC-3 @ 768 kb/s (5.1) / Hebrew
subs: English (forced), English, English, Arabic, Bulgarian, Czech, Danish, German, Greek,
Spanish, Spanish, Estonian, Finnish, French, French, Hebrew, Hindi, Hungarian,
Indonesian, Italian, Japanese, Korean, Lithuanian, Latvian, Malay, Dutch, Norwegian,
Polish, Portuguese, Portuguese, Russian, Slovak, Slovenian, Swedish, Tamil, Telugu,
Thai, Turkish, Ukrainian, Vietnamese, Chinese, Chinese, Chinese
url: https://www.tvmaze.com/shows/48362/tehran

==Torrent==
Kategoria: TV/Seriale » Thriller


Dodał: Hytry1
Data dodania:
2020-10-29 17:58:24
Rozmiar: 1.10 GB
Seedów: 225
Peerów: 115
Pobrano: 113 razy

Komentarze: 0


..::(Info)::..

*Kraj produkcji: Australia / Nowa Zelandia / USA
*Gatunek filmu: Thriller
*Data premiery: 1 października 2019 r
*Reżyseria: David Hubbard

..::(Opis)::..

Policja nad jeziorem odnajduje zwłoki, co wzbudza strach w mieszkańcach miasteczka, którzy obawiają się, że powrócił seryjny morderca. Dochodzenie prowadzi Mike Serrato (Aden Young). Sprawą zainteresowany jest również pedagog szkolny, Leo Doyle (Sam Trammell). Śledztwo budzi w mężczyznach wszystkie demony z przeszłości, co sprawia, że obaj znajdą się na trudnym

..::(Obsada)::..

*Aden Young jako detektyw sierżant Mike Serrato
*Sam Trammell jako Leo Doyle
*Finn Little jako Jake Serrato
*Simone Kessell jako Paige Serrato

..::(Dane Techniczne)::..

Format : AVI at 2.172 kb/s
Length : 712 MiB for 45 min 49s 231 ms

Video #0 : MPEG-4 Visual at 1.970 kb/s
Aspect : 854 x 480 (1.779) at 23.976 fps

Audio #0 : AC-3 at 192 kb/s
Infos : 2 kanały, 44,1 kHz

==Torrent==
Kategoria: TV/Seriale » Thriller


Dodał: Sylvo
Data dodania:
2020-10-29 09:28:27
Rozmiar: 3.04 GB
Seedów: 144
Peerów: 22
Pobrano: 107 razy

Komentarze: 0


F_INFO

Tytuł: / Rachunek sumienia
Produkcja: Australia / USA
Gatunek: Thriller
Twórcy: David Hubbard, David Eick
Sieć: AXN

F_O_FILMIE

https://www.filmweb.pl/serial/Reckoning-2019-853237

[video=https://www.youtube.com/watch?v=Wv-FTeUbZuw]

F_OPIS

Policja nad jeziorem odnajduje zwłoki, co wzbudza strach w mieszkańcach miasteczka, którzy obawiają się, że powrócił seryjny morderca. Dochodzenie prowadzi Mike Serrato (Aden Young). Sprawą zainteresowany jest również pedagog szkolny, Leo Doyle (Sam Trammell). Śledztwo budzi w mężczyznach wszystkie demony z przeszłości, co sprawia, że obaj znajdą się na trudnym życiowym zakręcie.

F_DANE


Wideo: x264 / 4400 Kbps / 1920x1080 / AR 16:9 | Audio: AC3 / 320 Kbps 2.0 | Czas: 00:47:03 | Rozmiar: 1.543 GB|

Wersja językowa: PL | Zawartość uploadu: .mkv |

==Torrent==
Kategoria: TV/Seriale » Thriller


Dodał: Hytry1
Data dodania:
2020-10-27 01:39:47
Rozmiar: 1.22 GB
Seedów: 138
Peerów: 94
Pobrano: 164 razy

Komentarze: 0


..::(Info)::..

*Kraj produkcji: Australia / Nowa Zelandia / USA
*Gatunek filmu: Thriller
*Data premiery: 1 października 2019 r
*Reżyseria: David Hubbard

..::(Opis)::..

Policja nad jeziorem odnajduje zwłoki, co wzbudza strach w mieszkańcach miasteczka, którzy obawiają się, że powrócił seryjny morderca. Dochodzenie prowadzi Mike Serrato (Aden Young). Sprawą zainteresowany jest również pedagog szkolny, Leo Doyle (Sam Trammell). Śledztwo budzi w mężczyznach wszystkie demony z przeszłości, co sprawia, że obaj znajdą się na trudnym

..::(Obsada)::..

*Aden Young jako detektyw sierżant Mike Serrato
*Sam Trammell jako Leo Doyle
*Finn Little jako Jake Serrato
*Simone Kessell jako Paige Serrato

..::(Dane Techniczne)::..

Format : AVI at 2.172 kb/s
Length : 712 MiB for 45 min 49s 231 ms

Video #0 : MPEG-4 Visual at 1.970 kb/s
Aspect : 854 x 480 (1.779) at 23.976 fps

Audio #0 : AC-3 at 192 kb/s
Infos : 2 kanały, 44,1 kHz

==Torrent==
Kategoria: TV/Seriale » Thriller


Dodał: Jordan-83
Data dodania:
2020-10-25 18:54:07
Rozmiar: 1.24 GB
Seedów: 134
Peerów: 30
Pobrano: 160 razy

Komentarze: 0


...( Info )...

Produkcja: USA, Israel
Gatunek: Drama | Thriller
Twórcy: Philip Kaufman
Platforma: Apple TV +
Premiera: 22 Jun. 2020

...( Opis )...

Agentka Mossadu pracuje pod przykrywką w Teheranie. Gdy jej misja kończy się porażką musi sama zorganizować ucieczkę.

...( Dane Techniczne )...

Video
ID : 1
Format : AVC
Format/Info : Advanced Video Codec
Format profile : High@L3.2
Format settings : CABAC / 5 Ref Frames
Format settings, CABAC : Yes
Format settings, Reference frames : 5 frames
Codec ID : V_MPEG4/ISO/AVC
Duration : 50 min 14 s
Bit rate : 3 932 kb/s
Width : 1 482 pixels
Height : 620 pixels
Display aspect ratio : 2.40:1
Frame rate mode : Constant
Frame rate : 23.976 (24000/1001) FPS
Color space : YUV
Chroma subsampling : 4:2:0
Bit depth : 8 bits
Scan type : Progressive
Bits/(Pixel*Frame) : 0.178
Stream size : 1.38 GiB (84%)
Default : Yes
Forced : No
Color range : Limited
Color primaries : BT.709
Transfer characteristics : BT.709
Mat
[...]

»[Zobacz cały opis

==Torrent==
Kategoria: TV/Seriale » Thriller


Dodał: Jordan-83
Data dodania:
2020-10-25 18:54:01
Rozmiar: 1.57 GB
Seedów: 0
Peerów: 0
Pobrano: 155 razy

Komentarze: 0


...( Info )...

Produkcja: USA, Israel
Gatunek: Drama | Thriller
Twórcy: Philip Kaufman
Platforma: Apple TV +
Premiera: 22 Jun. 2020

...( Opis )...

Agentka Mossadu pracuje pod przykrywką w Teheranie. Gdy jej misja kończy się porażką musi sama zorganizować ucieczkę.

...( Dane Techniczne )...

Video
ID : 1
Format : AVC
Format/Info : Advanced Video Codec
Format profile : High@L3.2
Format settings : CABAC / 5 Ref Frames
Format settings, CABAC : Yes
Format settings, Reference frames : 5 frames
Codec ID : V_MPEG4/ISO/AVC
Duration : 50 min 14 s
Bit rate : 3 932 kb/s
Width : 1 482 pixels
Height : 620 pixels
Display aspect ratio : 2.40:1
Frame rate mode : Constant
Frame rate : 23.976 (24000/1001) FPS
Color space : YUV
Chroma subsampling : 4:2:0
Bit depth : 8 bits
Scan type : Progressive
Bits/(Pixel*Frame) : 0.178
Stream size : 1.38 GiB (84%)
Default : Yes
Forced : No
Color range : Limited
Color primaries : BT.709
Transfer characteristics : BT.709
Mat
[...]

»[Zobacz cały opis

==Torrent==
Kategoria: TV/Seriale » Thriller


Dodał: Jordan-83
Data dodania:
2020-10-25 18:53:57
Rozmiar: 1.26 GB
Seedów: 0
Peerów: 0
Pobrano: 153 razy

Komentarze: 0


...( Info )...

Produkcja: USA, Israel
Gatunek: Drama | Thriller
Twórcy: Philip Kaufman
Platforma: Apple TV +
Premiera: 22 Jun. 2020

...( Opis )...

Agentka Mossadu pracuje pod przykrywką w Teheranie. Gdy jej misja kończy się porażką musi sama zorganizować ucieczkę.

...( Dane Techniczne )...

Video
ID : 1
Format : AVC
Format/Info : Advanced Video Codec
Format profile : High@L3.2
Format settings : CABAC / 5 Ref Frames
Format settings, CABAC : Yes
Format settings, Reference frames : 5 frames
Codec ID : V_MPEG4/ISO/AVC
Duration : 50 min 14 s
Bit rate : 3 932 kb/s
Width : 1 482 pixels
Height : 620 pixels
Display aspect ratio : 2.40:1
Frame rate mode : Constant
Frame rate : 23.976 (24000/1001) FPS
Color space : YUV
Chroma subsampling : 4:2:0
Bit depth : 8 bits
Scan type : Progressive
Bits/(Pixel*Frame) : 0.178
Stream size : 1.38 GiB (84%)
Default : Yes
Forced : No
Color range : Limited
Color primaries : BT.709
Transfer characteristics : BT.709
Mat
[...]

»[Zobacz cały opis

==Torrent==
Kategoria: TV/Seriale » Thriller


Dodał: Jordan-83
Data dodania:
2020-10-25 18:53:51
Rozmiar: 1.22 GB
Seedów: 0
Peerów: 0
Pobrano: 155 razy

Komentarze: 0


...( Info )...

Produkcja: USA, Israel
Gatunek: Drama | Thriller
Twórcy: Philip Kaufman
Platforma: Apple TV +
Premiera: 22 Jun. 2020

...( Opis )...

Agentka Mossadu pracuje pod przykrywką w Teheranie. Gdy jej misja kończy się porażką musi sama zorganizować ucieczkę.

...( Dane Techniczne )...

Video
ID : 1
Format : AVC
Format/Info : Advanced Video Codec
Format profile : High@L3.2
Format settings : CABAC / 5 Ref Frames
Format settings, CABAC : Yes
Format settings, Reference frames : 5 frames
Codec ID : V_MPEG4/ISO/AVC
Duration : 50 min 14 s
Bit rate : 3 932 kb/s
Width : 1 482 pixels
Height : 620 pixels
Display aspect ratio : 2.40:1
Frame rate mode : Constant
Frame rate : 23.976 (24000/1001) FPS
Color space : YUV
Chroma subsampling : 4:2:0
Bit depth : 8 bits
Scan type : Progressive
Bits/(Pixel*Frame) : 0.178
Stream size : 1.38 GiB (84%)
Default : Yes
Forced : No
Color range : Limited
Color primaries : BT.709
Transfer characteristics : BT.709
Mat
[...]

»[Zobacz cały opis

==Torrent==
Kategoria: TV/Seriale » Thriller


Dodał: Jordan-83
Data dodania:
2020-10-25 18:53:46
Rozmiar: 1.43 GB
Seedów: 0
Peerów: 0
Pobrano: 165 razy

Komentarze: 0


...( Info )...

Produkcja: USA, Israel
Gatunek: Drama | Thriller
Twórcy: Philip Kaufman
Platforma: Apple TV +
Premiera: 22 Jun. 2020

...( Opis )...

Agentka Mossadu pracuje pod przykrywką w Teheranie. Gdy jej misja kończy się porażką musi sama zorganizować ucieczkę.

...( Dane Techniczne )...

Video
ID : 1
Format : AVC
Format/Info : Advanced Video Codec
Format profile : High@L3.2
Format settings : CABAC / 5 Ref Frames
Format settings, CABAC : Yes
Format settings, Reference frames : 5 frames
Codec ID : V_MPEG4/ISO/AVC
Duration : 50 min 14 s
Bit rate : 3 932 kb/s
Width : 1 482 pixels
Height : 620 pixels
Display aspect ratio : 2.40:1
Frame rate mode : Constant
Frame rate : 23.976 (24000/1001) FPS
Color space : YUV
Chroma subsampling : 4:2:0
Bit depth : 8 bits
Scan type : Progressive
Bits/(Pixel*Frame) : 0.178
Stream size : 1.38 GiB (84%)
Default : Yes
Forced : No
Color range : Limited
Color primaries : BT.709
Transfer characteristics : BT.709
Mat
[...]

»[Zobacz cały opis

==Torrent==
Kategoria: TV/Seriale » Thriller


Dodał: Jordan-83
Data dodania:
2020-10-25 18:53:29
Rozmiar: 1.20 GB
Seedów: 0
Peerów: 0
Pobrano: 163 razy

Komentarze: 0


...( Info )...

Produkcja: USA, Israel
Gatunek: Drama | Thriller
Twórcy: Philip Kaufman
Platforma: Apple TV +
Premiera: 22 Jun. 2020

...( Opis )...

Agentka Mossadu pracuje pod przykrywką w Teheranie. Gdy jej misja kończy się porażką musi sama zorganizować ucieczkę.

...( Dane Techniczne )...

Video
ID : 1
Format : AVC
Format/Info : Advanced Video Codec
Format profile : High@L3.2
Format settings : CABAC / 5 Ref Frames
Format settings, CABAC : Yes
Format settings, Reference frames : 5 frames
Codec ID : V_MPEG4/ISO/AVC
Duration : 50 min 14 s
Bit rate : 3 932 kb/s
Width : 1 482 pixels
Height : 620 pixels
Display aspect ratio : 2.40:1
Frame rate mode : Constant
Frame rate : 23.976 (24000/1001) FPS
Color space : YUV
Chroma subsampling : 4:2:0
Bit depth : 8 bits
Scan type : Progressive
Bits/(Pixel*Frame) : 0.178
Stream size : 1.38 GiB (84%)
Default : Yes
Forced : No
Color range : Limited
Color primaries : BT.709
Transfer characteristics : BT.709
Mat
[...]

»[Zobacz cały opis

==Torrent==
Kategoria: TV/Seriale » Thriller


Dodał: Jordan-83
Data dodania:
2020-10-25 18:49:12
Rozmiar: 1.65 GB
Seedów: 35
Peerów: 4
Pobrano: 199 razy

Komentarze: 0


...( Info )...

Produkcja: USA, Israel
Gatunek: Drama | Thriller
Twórcy: Philip Kaufman
Platforma: Apple TV +
Premiera: 22 Jun. 2020

...( Opis )...

Agentka Mossadu pracuje pod przykrywką w Teheranie. Gdy jej misja kończy się porażką musi sama zorganizować ucieczkę.

...( Dane Techniczne )...

Video
ID : 1
Format : AVC
Format/Info : Advanced Video Codec
Format profile : High@L3.2
Format settings : CABAC / 5 Ref Frames
Format settings, CABAC : Yes
Format settings, Reference frames : 5 frames
Codec ID : V_MPEG4/ISO/AVC
Duration : 50 min 14 s
Bit rate : 3 932 kb/s
Width : 1 482 pixels
Height : 620 pixels
Display aspect ratio : 2.40:1
Frame rate mode : Constant
Frame rate : 23.976 (24000/1001) FPS
Color space : YUV
Chroma subsampling : 4:2:0
Bit depth : 8 bits
Scan type : Progressive
Bits/(Pixel*Frame) : 0.178
Stream size : 1.38 GiB (84%)
Default : Yes
Forced : No
Color range : Limited
Color primaries : BT.709
Transfer characteristics : BT.709
Mat
[...]

»[Zobacz cały opis

==Torrent==
Kategoria: TV/Seriale » Thriller


Dodał: Jordan-83
Data dodania:
2020-10-25 15:45:50
Rozmiar: 13.61 GB
Seedów: 0
Peerów: 0
Pobrano: 78 razy

Komentarze: 0


...( Info )...

Produkcja: Spain
Gatunek: Crime | Drama | Mystery | Thriller
Twórcy: Natxo López,Ruth García,David Oliva
Platforma: Netflix
Premiera: 23 October 2020 (Poland)

...( Opis )...

W poszukiwaniu porwanej córki Antonio umyślnie trafia do okrytego złą sławą kolumbijskiego więzienia. Tym samym uruchamia lawinę zdarzeń, która odmienia życie wielu osób.

...( Obsada )...

Daniel Grao
Carolina Lapausa
Melani Olivares
Adriana Paz
Fernando Solórzano
Juan Carlos Messier
Jon Arias
Verónica Velásquez
David Trejos
Ana Maria Orozco

...( Dane Techniczne )...

Video
ID : 1
Format : AVC
Format/Info : Advanced Video Codec
Format profile : Main@L4
Format settings : CABAC / 3 Ref Frames
Format settings, CABAC : Yes
Format settings, Reference frames : 3 frames
Codec ID : V_MPEG4/ISO/AVC
Duration : 47 min 36 s
Bit rate mode : Variable
Bit rate : 4 420 kb/s
Maximum bit rate : 6 630 kb/s
Width : 1 920 pixels
Height : 1 080 pixels
Display aspect ratio : 1
[...]

»[Zobacz cały opis

==Torrent==
Kategoria: TV/Seriale » Thriller


Dodał: Hytry1
Data dodania:
2020-10-23 00:09:56
Rozmiar: 820.46 MB
Seedów: 344
Peerów: 83
Pobrano: 86 razy

Komentarze: 0


..::(Info)::..

*Kraj produkcji: Finlandia
*Gatunek filmu: Thriller
*Data premiery: 2019
*Reżyseria: Katri Manninen, Antti-Jussi Annila

..::(Opis)::..

W latach 50. XX wieku najgorętszym miejscem zimnej wojny były Helsinki, gdzie zarówno KGB, jak i CIA starały się kontrolować Finlandię. W miarę narastania globalnych napięć między mocarstwami grupa operacyjna fińskich służb specjalnych Pięść stara się zachować niezależność swojego kraju i zjednoczenie zespołu. Nowy członek grupy stopniowo poznaje prawdę o swojej przeszłości, zaś wybory prezydenckie w Finlandii zbliżają się wielkimi krokami. Serial to międzynarodowy thriller szpiegowski, który opowiada historię zespołu wywiadowczego. Jego misją jest obrona niepodległości Finlandii bez względu na koszty.

..::(Obsada)::..

*Emmi Parviainen jako Helena Korhonen
*Olavi Uusivirta jako Julius Boije
*Sampo Sarkola jako Olavi Suominen
*Katja Küttner jako Aune Lyytinen

..::(Dane Techniczne)::..

Format : AVI at 2.208 kb
[...]

»[Zobacz cały opis

==Torrent==
Kategoria: TV/Seriale » Thriller


Dodał: Jordan-83
Data dodania:
2020-10-20 11:53:08
Rozmiar: 9.45 GB
Seedów: 845
Peerów: 939
Pobrano: 407 razy

Komentarze: 0


...( Info )...

Produkcja: Wielka Brytania, USA
Gatunek: Dramat, Thriller
Twórca: Dennis Kelly
Sieci: HBO, Sky Atlantic
Premiera: 14 września - 19 października 2020

...( Opis )...

Sam (Jude Law) dociera na pełną tajemnic brytyjską wyspę. Kiedy poznaje lokalną społeczność, szybko dochodzi do wniosku, że skrywa ona wiele mrocznych sekretów. W otoczeniu piękna przyrody i pozostając w izolacji od reszty świata, miejscowi oddają się pradawnym rytuałom i dbają o tradycje swoich przodków. Z biegiem kolejnych dni dawne traumatyczne przeżycia powracają do Sama i zmuszają, by się nad nimi pochylił. Jednocześnie, choć coraz trudniej mu odnaleźć granicę między jawą a snem, mężczyzna dąży do poznania prawdy o wyspie i tym, co strasznego się na niej wydarzyło. Helen (Naomie Harris) zawsze była zdecydowaną i pewną siebie kobietą, ale lubiła pozostawać w cieniu. Trafia na wyspę, pragnąc uzyskać pewne odpowiedzi. Jej przyjazd uruchamia lawinę dziwnych zdarzeń i wpływa na całą społeczność Mi
[...]

»[Zobacz cały opis

==Torrent==
Kategoria: TV/Seriale » Thriller


Dodał: Hytry1
Data dodania:
2020-10-20 02:03:49
Rozmiar: 1.19 GB
Seedów: 39
Peerów: 166
Pobrano: 132 razy

Komentarze: 2


..::(Info)::..

*Kraj produkcji: Australia / Nowa Zelandia / USA
*Gatunek filmu: Thriller
*Data premiery: 1 października 2019 r
*Reżyseria: David Hubbard

..::(Opis)::..

Policja nad jeziorem odnajduje zwłoki, co wzbudza strach w mieszkańcach miasteczka, którzy obawiają się, że powrócił seryjny morderca. Dochodzenie prowadzi Mike Serrato (Aden Young). Sprawą zainteresowany jest również pedagog szkolny, Leo Doyle (Sam Trammell). Śledztwo budzi w mężczyznach wszystkie demony z przeszłości, co sprawia, że obaj znajdą się na trudnym

..::(Obsada)::..

*Aden Young jako detektyw sierżant Mike Serrato
*Sam Trammell jako Leo Doyle
*Finn Little jako Jake Serrato
*Simone Kessell jako Paige Serrato

..::(Dane Techniczne)::..

Format : AVI at 2.172 kb/s
Length : 712 MiB for 45 min 49s 231 ms

Video #0 : MPEG-4 Visual at 1.970 kb/s
Aspect : 854 x 480 (1.779) at 23.976 fps

Audio #0 : AC-3 at 192 kb/s
Infos : 2 kanały, 44,1 kHz

==Torrent==
Kategoria: TV/Seriale » Thriller


Dodał: Hytry1
Data dodania:
2020-10-16 17:56:55
Rozmiar: 1.36 GB
Seedów: 58
Peerów: 356
Pobrano: 247 razy

Komentarze: 0


..::(Info)::..

*Kraj produkcji: Australia / Nowa Zelandia / USA
*Gatunek filmu: Thriller
*Data premiery: 1 października 2019 r
*Reżyseria: David Hubbard

..::(Opis)::..

Policja nad jeziorem odnajduje zwłoki, co wzbudza strach w mieszkańcach miasteczka, którzy obawiają się, że powrócił seryjny morderca. Dochodzenie prowadzi Mike Serrato (Aden Young). Sprawą zainteresowany jest również pedagog szkolny, Leo Doyle (Sam Trammell). Śledztwo budzi w mężczyznach wszystkie demony z przeszłości, co sprawia, że obaj znajdą się na trudnym

..::(Obsada)::..

*Aden Young jako detektyw sierżant Mike Serrato
*Sam Trammell jako Leo Doyle
*Finn Little jako Jake Serrato
*Simone Kessell jako Paige Serrato

..::(Dane Techniczne)::..

Format : AVI at 2.172 kb/s
Length : 712 MiB for 45 min 49s 231 ms

Video #0 : MPEG-4 Visual at 1.970 kb/s
Aspect : 854 x 480 (1.779) at 23.976 fps

Audio #0 : AC-3 at 192 kb/s
Infos : 2 kanały, 44,1 kHz

==Torrent==
Kategoria: TV/Seriale » Thriller


Dodał: Sylvo
Data dodania:
2020-10-16 11:30:10
Rozmiar: 15.74 GB
Seedów: 262
Peerów: 837
Pobrano: 150 razy

Komentarze: 0


...( Info )...

Produkcja: Francja
Gatunek: Historyczny, Thriller
Premiera: 16 października 2020 (Świat)
Twórca: Aurélien Molas

...( O filmie )...

https://www.filmweb.pl/serial/Rewolucja-2020-856914
https://www.youtube.com/watch?v=IsxWB4IDTrs
https://www.imdb.com/title/tt13044528/

...( Opis )...

Historia w wersji alternatywnej: XVIII-wieczną Francję nawiedza tajemnicza choroba, której kulminacją jest brutalne starcie między zbuntowanym ludem a arystokracją.

...( Obsada )...

★ Amir Abou El Kacem .... Joseph Guillotin
★ Marilou Aussilloux .... Elise de Montargis
★ Lionel Erdogan .... Albert Guillotin
★ Isabel Aimé González-Sola .... Katell
★ Mamadou Doumbia .... Oka
★ Laurent Lucas .... Charles de Montargis
★ Dimitri Storoge .... Edmond de Pérouse
★ Julien Frison .... Donatien de Montargis

...( Dane Techniczne )...

Format : Matroska at 6 837 Kbps
Length : 2.45 GiB for 51mn 22s 400ms

Video #0 : AVC at 6 061 Kbps
Aspect : 1920 x 1080 (1.778) at 24
[...]

»[Zobacz cały opis

==Torrent==
Kategoria: TV/Seriale » Thriller


Dodał: Sylvo
Data dodania:
2020-10-16 09:24:41
Rozmiar: 700.34 MB
Seedów: 0
Peerów: 0
Pobrano: 50 razy

Komentarze: 0


...( Info )...

Kraj produkcji: Finlandia
Gatunek filmu: Thriller
Data premiery: 2019
Reżyseria: Katri Manninen, Antti-Jussi Annila

...( O filmie )...

https://www.imdb.com/title/tt8734462/ <- ocena 7.2
https://www.youtube.com/watch?v=w7fXBUqvp3k

...( Opis )...

W latach 50. XX wieku najgorętszym miejscem zimnej wojny były Helsinki, gdzie zarówno KGB, jak i CIA starały się kontrolować Finlandię. W miarę narastania globalnych napięć między mocarstwami grupa operacyjna fińskich służb specjalnych Pięść stara się zachować niezależność swojego kraju i zjednoczenie zespołu. Nowy członek grupy stopniowo poznaje prawdę o swojej przeszłości, zaś wybory prezydenckie w Finlandii zbliżają się wielkimi krokami. Serial to międzynarodowy thriller szpiegowski, który opowiada historię zespołu wywiadowczego. Jego misją jest obrona niepodległości Finlandii bez względu na koszty.

...( Dane Techniczne )...

Dane techniczne przykładowego odcinka:
AVI: ~ 700 MB ~ 45 min
Video - 720x352
[...]

»[Zobacz cały opis

==Torrent==
Kategoria: TV/Seriale » Thriller


Dodał: Sylvo
Data dodania:
2020-10-16 09:20:43
Rozmiar: 2.63 GB
Seedów: 130
Peerów: 50
Pobrano: 148 razy

Komentarze: 2


Rachunek sumienia / Reckoning (2019) [Sezon 1] PL.480p.NF.WEB-DL.DD5.1.XviD-H3Q / Lektor PL

...( Info )...

Tytuł: / Rachunek sumienia
Produkcja: Australia / USA
Gatunek: Thriller
Twórcy: David Hubbard, David Eick
Sieć: AXN

https://www.filmweb.pl/serial/Reckoning-2019-853237
https://www.youtube.com/watch?v=Wv-FTeUbZuw

...( Opis )...

Policja nad jeziorem odnajduje zwłoki, co wzbudza strach w mieszkańcach miasteczka, którzy obawiają się, że powrócił seryjny morderca. Dochodzenie prowadzi Mike Serrato (Aden Young). Sprawą zainteresowany jest również pedagog szkolny, Leo Doyle (Sam Trammell). Śledztwo budzi w mężczyznach wszystkie demony z przeszłości, co sprawia, że obaj znajdą się na trudnym życiowym zakręcie.

...( Dane Techniczne )...

Dane techniczne przykładowego odcinka:
AVI: ~ 750 MB ~ 46 min
Video - 720x400, XviD ~1890 Kbps 23.976 fps;
Filters: BVOP2-NoQpel-NoGMC-Custom Matrix
Audio - AC3 5.1 ~384 Kbps 48.0 kHz
Source V/A: 1080p.NF.WEB-DL.DD+5.1.H264-NT
[...]

»[Zobacz cały opis

==Torrent==
Kategoria: TV/Seriale » Thriller


Dodał: Hytry1
Data dodania:
2020-10-15 23:51:08
Rozmiar: 796.03 MB
Seedów: 333
Peerów: 28
Pobrano: 77 razy

Komentarze: 0


..::(Info)::..

*Kraj produkcji: Finlandia
*Gatunek filmu: Thriller
*Data premiery: 2019
*Reżyseria: Katri Manninen, Antti-Jussi Annila

..::(Opis)::..

W latach 50. XX wieku najgorętszym miejscem zimnej wojny były Helsinki, gdzie zarówno KGB, jak i CIA starały się kontrolować Finlandię. W miarę narastania globalnych napięć między mocarstwami grupa operacyjna fińskich służb specjalnych Pięść stara się zachować niezależność swojego kraju i zjednoczenie zespołu. Nowy członek grupy stopniowo poznaje prawdę o swojej przeszłości, zaś wybory prezydenckie w Finlandii zbliżają się wielkimi krokami. Serial to międzynarodowy thriller szpiegowski, który opowiada historię zespołu wywiadowczego. Jego misją jest obrona niepodległości Finlandii bez względu na koszty.

..::(Obsada)::..

*Emmi Parviainen jako Helena Korhonen
*Olavi Uusivirta jako Julius Boije
*Sampo Sarkola jako Olavi Suominen
*Katja Küttner jako Aune Lyytinen

..::(Dane Techniczne)::..

Format : AVI at 2.208 kb
[...]

»[Zobacz cały opis

==Torrent==
Kategoria: TV/Seriale » Thriller


Dodał: topp2p
Data dodania:
2020-10-09 09:51:11
Rozmiar: 13.33 GB
Seedów: 27
Peerów: 3
Pobrano: 153 razy

Komentarze: 0


...( Info )...

Tytuł: Ku jezioru / To the Lake / Epidemiya / Sezon 01 [2019] [Epizodów:8]
===========================================================
Produkcja: Rosja
Gatunek: Thriller
Premiera: 10 kwietnia 2019 (Świat)
Reżyseria: Pavel Kostomarov
Producenci: Evgeny Nikishov, Ivan Golomovzyuk
Scenariusz: Roman Kantor, Jana Wagner, Aleksey Karaulov

...( Opis )...

W obliczu wywołanego straszliwą pandemią końca cywilizacji grupa ludzi zaciekle walczy o przetrwanie. Na szali kładą wszystko — swoje życie, miłość i człowieczeństwo.

...( Obsada )...

★ Kirill Käro ....
★ Viktoriya Isakova ....
★ Aleksandr Robak ....
★ Maryana Spivak ....
★ Yuriy Kuznetsov ....
★ Saveliy Kudryashov ....
★ Alya Nikulina ....
★ Natalya Zemtsova ....

...( Dane Techniczne )...

Format      : Matroska at 3 992 kb/s
Length      : 1.58 GiB for 56 min 36 s 256 ms

Video #0     : AVC at 3 830 kb/s
Aspect      : 1920 x 1080 (1.778) at 25.000 fps

Audi
[...]

»[Zobacz cały opis

==Torrent==
Kategoria: TV/Seriale » Thriller


Dodał: Hytry1
Data dodania:
2020-10-09 00:06:04
Rozmiar: 702.49 MB
Seedów: 318
Peerów: 54
Pobrano: 93 razy

Komentarze: 0


..::(Info)::..

*Kraj produkcji: Finlandia
*Gatunek filmu: Thriller
*Data premiery: 2019
*Reżyseria: Katri Manninen, Antti-Jussi Annila

..::(Opis)::..

W latach 50. XX wieku najgorętszym miejscem zimnej wojny były Helsinki, gdzie zarówno KGB, jak i CIA starały się kontrolować Finlandię. W miarę narastania globalnych napięć między mocarstwami grupa operacyjna fińskich służb specjalnych Pięść stara się zachować niezależność swojego kraju i zjednoczenie zespołu. Nowy członek grupy stopniowo poznaje prawdę o swojej przeszłości, zaś wybory prezydenckie w Finlandii zbliżają się wielkimi krokami. Serial to międzynarodowy thriller szpiegowski, który opowiada historię zespołu wywiadowczego. Jego misją jest obrona niepodległości Finlandii bez względu na koszty.

..::(Obsada)::..

*Emmi Parviainen jako Helena Korhonen
*Olavi Uusivirta jako Julius Boije
*Sampo Sarkola jako Olavi Suominen
*Katja Küttner jako Aune Lyytinen

..::(Dane Techniczne)::..

Format : AVI at 2.208 kb
[...]

»[Zobacz cały opis

==Torrent==
Kategoria: TV/Seriale » Thriller


Dodał: Jordan-83
Data dodania:
2020-10-08 12:17:40
Rozmiar: 6.14 GB
Seedów: 131
Peerów: 27
Pobrano: 356 razy

Komentarze: 0


...( Info )...

Produkcja: Rosja
Gatunek: Thriller
Twórca: Pavla Kostomarova
Platforma: Netflix, TNT Prime Studios
Premiera: 21 listopada 2019

...( Opis )...

W obliczu wywołanego straszliwą pandemią końca cywilizacji grupa ludzi zaciekle walczy o przetrwanie. Na szali kładą wszystko — swoje życie, miłość i człowieczeństwo.

...( Obsada )...

Viktoriya Agalakova As Polina
Viktoriya Isakova As Anna
Kirill Käro As Sergey
Gilli Messer As Marina
Aleksandr Robak As Lyonya
Kit Sheehan As Irina
Maryana Spivak As Irina
Natalya Zemtsova As Marina
Yuriy Kuznetsov As Boris

...( Dane Techniczne )...

Format : Matroska at 2.257 kb/s
Length : 914 MiB for 56 min 36s 200 ms

Video #0 : AVC at 2.150 kb/s
Aspect : 1280 x 720 (1.778) at 25.000 fps

Audio #0 : AAC at 127 kb/s
Infos : 2 kanały, 48,0 kHz
Language : pl

Text #0 : UTF-8
Language : pl

==Torrent==
Kategoria: TV/Seriale » Thriller


Dodał: zibi6248
Data dodania:
2020-10-07 14:48:35
Rozmiar: 13.15 GB
Seedów: 56
Peerów: 10
Pobrano: 338 razy

Komentarze: 3


...( Info )...

Tytuł: Epidemia - Ku jezioru - Epidemiya - To the lake Sezon 01 [2019] [Epizodów: 8]
Ocena: IMDB - 7.1/10 (674), Filmweb - 6.7/10 (3)
==================================================
Produkcja: Rosja
Gatunek: Thriller Sci-fi
Premiera: 10 kwietnia 2019 (Świat)
Reżyseria: Lyudmila Tomilova
Epizodów: 8
Platforma TV: Netflix
https://www.youtube.com/watch?v=DjXGHsKc0hs

...( Opis )...

Nieznany wirus zamienia Moskwę w miasto umarłych. Nie ma prądu, pieniądze straciły wszelką wartość, a ci, którzy nadal nie są zarażeni, rozpaczliwie walczą o żywność i paliwo. Główny bohater, Siergiej, mieszka poza miastem z ukochaną kobietą i jej autystycznym synem. Tam jest nadal bezpiecznie. Mimo to pędzi do Moskwy, aby uratować swoją byłą żonę i ich syna

...( Obsada )...

★ Kirill Käro ....
★ Viktoriya Isakova ....
★ Aleksandr Robak ....
★ Maryana Spivak ....
★ Yuriy Kuznetsov ....
★ Saveliy Kudryashov ....
★ Alya Nikulina ....
★ Natalya Zemtsova ....
[...]

»[Zobacz cały opis

==Torrent==
Kategoria: TV/Seriale » Thriller


Dodał: Hytry1
Data dodania:
2020-10-02 00:27:52
Rozmiar: 606.82 MB
Seedów: 52
Peerów: 8
Pobrano: 100 razy

Komentarze: 2


..::(Info)::..

*Kraj produkcji: Finlandia
*Gatunek filmu: Thriller
*Data premiery: 2019
*Reżyseria: Katri Manninen, Antti-Jussi Annila

..::(Opis)::..

W latach 50. XX wieku najgorętszym miejscem zimnej wojny były Helsinki, gdzie zarówno KGB, jak i CIA starały się kontrolować Finlandię. W miarę narastania globalnych napięć między mocarstwami grupa operacyjna fińskich służb specjalnych Pięść stara się zachować niezależność swojego kraju i zjednoczenie zespołu. Nowy członek grupy stopniowo poznaje prawdę o swojej przeszłości, zaś wybory prezydenckie w Finlandii zbliżają się wielkimi krokami. Serial to międzynarodowy thriller szpiegowski, który opowiada historię zespołu wywiadowczego. Jego misją jest obrona niepodległości Finlandii bez względu na koszty.

..::(Obsada)::..

*Emmi Parviainen jako Helena Korhonen
*Olavi Uusivirta jako Julius Boije
*Sampo Sarkola jako Olavi Suominen
*Katja Küttner jako Aune Lyytinen

..::(Dane Techniczne)::..

Format : AVI at 2.208 kb
[...]

»[Zobacz cały opis

==Torrent==
Kategoria: TV/Seriale » Thriller


Dodał: Hytry1
Data dodania:
2020-09-25 00:40:27
Rozmiar: 693.02 MB
Seedów: 332
Peerów: 36
Pobrano: 103 razy

Komentarze: 0


..::(Info)::..

*Kraj produkcji: Finlandia
*Gatunek filmu: Thriller
*Data premiery: 2019
*Reżyseria: Katri Manninen, Antti-Jussi Annila

..::(Opis)::..

W latach 50. XX wieku najgorętszym miejscem zimnej wojny były Helsinki, gdzie zarówno KGB, jak i CIA starały się kontrolować Finlandię. W miarę narastania globalnych napięć między mocarstwami grupa operacyjna fińskich służb specjalnych Pięść stara się zachować niezależność swojego kraju i zjednoczenie zespołu. Nowy członek grupy stopniowo poznaje prawdę o swojej przeszłości, zaś wybory prezydenckie w Finlandii zbliżają się wielkimi krokami. Serial to międzynarodowy thriller szpiegowski, który opowiada historię zespołu wywiadowczego. Jego misją jest obrona niepodległości Finlandii bez względu na koszty.

..::(Obsada)::..

*Emmi Parviainen jako Helena Korhonen
*Olavi Uusivirta jako Julius Boije
*Sampo Sarkola jako Olavi Suominen
*Katja Küttner jako Aune Lyytinen

..::(Dane Techniczne)::..

Format : AVI at 2.208 kb
[...]

»[Zobacz cały opis

Przeglądaj
1 - 50 | 51 - 100 | 101 - 150 | ... | 851 - 900 | 901 - 950 | 951 - 976
<< Poprzednia      Następna >>
NAJCZĘŚCIEJ POBIERANE