Kategorie
Ranking
RSS
Programy

Statystyki
Użytkowników:
Zarejestrowanych wczoraj:
Zarejestrowanych dzisiaj:
Torrentów:
Dodanych wczoraj:
Dodanych dzisiaj:
Warezów:
Dodanych wczoraj:
Dodanych dzisiaj:
135,017
40
6
144,168
105
3
11,806
0
0
Ostatnie 30
Popularne
w Styczniu
==Torrent==
Kategoria: Dla Dzieci » Filmy/Bajki


Dodał: electroloader
Data dodania:
2017-01-15 21:49:11
Rozmiar: 699.53 MB
Seedów: 3
Peerów: 3
Pobrano: 492 razy
Kondycja:






Pszczółka Maja. Film - Maya the Bee Movie *2014* [BRRip] [XviD-KiT] [Dubbing PL]



Tytuł: Maya the Bee Movie
Polski Tytuł: Pszczółka Maja. Film

Produkcja: Australia, Niemcy
Gatunek: Animacja
Czas trwania: 88 min.
Premiera: 26.09.2014 - Polska, 04.09.2014 - Świat
Reżyseria: Alexs Stadermann
Scenariusz: Fin Edquist, Marcus Sauermann

http://www.filmweb.pl/film/Pszcz%C3%B3%C5%82ka+Maja.+Film-2014-709830

http://www.imdb.com/title/tt3336368/?ref_=fn_al_tt_1

https://fdb.pl/film/583834-pszczolka-maja-film



Maja to mała pszczółka o wielkim sercu i urzekającej osobowości! Urodzona w perfekcyjnie zorganizowanym społeczeństwie pszczół robotnic, Maja marzy o prawdziwej wolności oraz ekscytującym życiu pełnym zabawy i wielkich przygód. Prawda jest bowiem taka, że dla inteligentnej Mai świat jest zbyt interesującym i pozytywnie tajemniczym miejscem, by zmarnować swe życie na pracę w ulu. Nie ma drugiej takiej pszczoły jak Maja! Mająca nonkonformizm we krwi, pełna entuzjazmu pszczółka o bujnej wyobraźni chciałaby zasmakować wszystkiego, co świat oferuje.(upload by AgusiQ) Jej zachwyt nad pięknem otoczenia oraz wrodzony wdzięk zapewniają jej zniewalającą energię, która niedługo sprawi, że wszyscy przeciwnicy staną po jej stronie, a pozostałe pszczoły odnajdą w sobie chęć do radosnego, wyzbytego surowych zasad życia w zgodzie z samym sobą.



★ Agnieszka Fajlhauer...Maja
★ Mateusz Banasiuk...Gucio
★ Krzysztof Ibisz...Filip
★ Agnieszka Kunikowska...Bzyczyna
★ Teresa Lipowska...Królowa
★ Jerzy Kryszak...Gienek
★ Jarosław Boberek...Zenek
★ Ewa Kasprzyk...Niania

Polski dubbing



Format : AVI
Format/Info : Audio Video Interleave
File size : 699 MiB
Duration : 1h 28mn
Overall bit rate : 1 109 Kbps
Writing application : VirtualDubMod 1.5.10.2 (build 2540/release)
Writing library : VirtualDubMod build 2540/release

Video
ID : 0
Format : MPEG-4 Visual
Format profile : Advanced Simple@L5
Format settings, BVOP : 2
Format settings, QPel : No
Format settings, GMC : No warppoints
Format settings, Matrix : Default (H.263)
Muxing mode : Packed bitstream
Codec ID : XVID
Codec ID/Hint : XviD
Duration : 1h 28mn
Bit rate : 928 Kbps
Width : 640 pixels
Height : 352 pixels
Display aspect ratio : 16:9
Frame rate : 23.976 fps
Color space : YUV
Chroma subsampling : 4:2:0
Bit depth : 8 bits
Scan type : Progressive
Compression mode : Lossy
Bits/(Pixel*Frame) : 0.172
Stream size : 585 MiB (84%)
Writing library : XviD 65

Audio
ID : 1
Format : MPEG Audio
Format version : Version 1
Format profile : Layer 3
Mode : Joint stereo
Mode extension : MS Stereo
Codec ID : 55
Codec ID/Hint : MP3
Duration : 1h 27mn
Bit rate mode : Constant
Bit rate : 128 Kbps
Channel(s) : 2 channels
Sampling rate : 48.0 KHz
Compression mode : Lossy
Stream size : 80.3 MiB (11%)
Alignment : Aligned on interleaves

PS/ POBRALES ---------> SEEDUJ /THX/

Lista plików Show/Hide [Pokaż/Ukryj]
Trackery
Tracker URLSeedówPeerówPobrań
udp://tracker.openbittorrent.com:80/announce1110
udp://9.rarbg.me:2710/announce111
udp://tracker.leechers-paradise.org:6969/announce110
http://tracker.devil-torrents.pl/announce000
udp://shadowshq.yi.org:6969/announce000
http://t1.pow7.com/announce000
http://secure.pow7.com/announce000
http://retracker.krs-ix.ru/announce000
http://pow7.com/announce000
udp://tracker.mg64.net:2710/announce000
udp://tracker.eddie4.nl:6969/announce000
http://tracker.tfile.me/announce000
udp://shadowshq.eddie4.nl:6969/announce000
udp://tracker.publicbt.com:80/announce000
http://tracker.mg64.net:6881/announce000
udp://www.eddie4.nl:6969/announce000
http://tracker2.wasabii.com.tw:6969/announce000
http://tracker.filetracker.pl:8089/announce000
http://tracker.electro-torrent.pl/announce000
http://t2.pow7.com/announce000

Komentarze

Brak komentarzy!

Dodawanie komentarza
Komentujesz torrenta:
Pszczółka Maja. Film - Maya the Bee Movie *2014* [BRRip] [XviD-KiT] [Dubbing PL]

NAJCZĘŚCIEJ POBIERANE