Kategorie
Ranking
RSS
Programy

Statystyki
Użytkowników:
Zarejestrowanych wczoraj:
Zarejestrowanych dzisiaj:
Torrentów:
Dodanych wczoraj:
Dodanych dzisiaj:
Warezów:
Dodanych wczoraj:
Dodanych dzisiaj:
134,925
53
46
143,984
117
80
11,772
0
0
Ostatnie 30
Popularne
w Styczniu
==Torrent==
Kategoria: Dla Dzieci » Filmy/Bajki


Dodał: electroloader
Data dodania:
2017-01-15 21:58:55
Rozmiar: 698.75 MB
Seedów: 12
Peerów: 22
Pobrano: 229 razy
Kondycja:






Księżniczka Łabędzi 3 - Skarb czarnoksiężnika *1998* [DVDRip.XviD] [Dubbing PL]



Księżniczka łabędzi: Skarb czarnoksiężnika
The Swan Princess: The Mystery of the Enchanted Treasure (1998)
gatunek: Animacja, Familijny, Baśń
produkcja: USA
premiera: 4 sierpnia 1998 (świat)
reżyseria: Richard Rich
scenariusz: Richard Rich, Brian Nissen

http://www.filmweb.pl/film/Ksi%C4%99%C5%BCniczka+%C5%81ab%C4%99dzi%3A+Skarb+Czarnoksi%C4%99%C5%BCnika-1998-107891

https://fdb.pl/film/19159-ksiezniczka-labedzi-skarb-czarnoksieznika

https://fdb.pl/film/19159-ksiezniczka-labedzi-skarb-czarnoksieznika



Zła czarownica Zelda stara się wywołać zamęt i uprzykrzyć życie mieszkańcom okolic Jeziora Łabędziego, kradnąc Zakazane Dzieło - skarb o magicznych właściwościach, zapewniający nieograniczona moc swemu posiadaczowi. Aby zrealizować swój nikczemny plan, Zelda porywa Odettę, Księżniczkę Łabędzi.



Michelle Nicastro...Odette (głos)
Steve Vinovich...Puffin (głos)
Doug Stone...Speed (głos)
Brian Nissen...Derek (głos)
Sean Wright...Rothbart (głos)
Donald Sage Mackay...Jean-Bob (głos)
Christy Landers...Uberta (głos)
Katja Zoch...Zelda (głos)



Format : AVI
Format/Info : Audio Video Interleave
File size : 698 MiB
Duration : 1h 9mn
Overall bit rate : 1 401 Kbps
Writing application : VirtualDubMod 1.5.10.2 (build 2540/release)
Writing library : VirtualDubMod build 2540/release

Video
ID : 0
Format : MPEG-4 Visual
Format profile : Advanced Simple@L5
Format settings, BVOP : 2
Format settings, QPel : No
Format settings, GMC : No warppoints
Format settings, Matrix : Default (H.263)
Codec ID : XVID
Codec ID/Hint : XviD
Duration : 1h 9mn
Bit rate : 1 263 Kbps
Width : 720 pixels
Height : 384 pixels
Display aspect ratio : 1.85:1
Frame rate : 25.000 fps
Color space : YUV
Chroma subsampling : 4:2:0
Bit depth : 8 bits
Scan type : Progressive
Compression mode : Lossy
Bits/(Pixel*Frame) : 0.183
Stream size : 630 MiB (90%)
Writing library : XviD 64

Audio
ID : 1
Format : MPEG Audio
Format version : Version 1
Format profile : Layer 3
Mode : Joint stereo
Mode extension : MS Stereo
Codec ID : 55
Codec ID/Hint : MP3
Duration : 1h 9mn
Bit rate mode : Constant
Bit rate : 128 Kbps
Channel(s) : 2 channels
Sampling rate : 48.0 KHz
Compression mode : Lossy
Stream size : 63.8 MiB (9%)
Alignment : Aligned on interleaves
Interleave, duration : 40 ms (1.00 video frame)
Interleave, preload duratio : 504 ms

PS/ ---------> POBRALES --------> SEEDUJ /THX/

Lista plików Show/Hide [Pokaż/Ukryj]
Trackery
Tracker URLSeedówPeerówPobrań
http://tracker.filetracker.pl:8089/announce130
udp://9.rarbg.me:2710/announce121
udp://tracker.leechers-paradise.org:6969/announce121
udp://www.eddie4.nl:6969/announce121
udp://shadowshq.eddie4.nl:6969/announce121
udp://shadowshq.yi.org:6969/announce121
udp://tracker.eddie4.nl:6969/announce121
http://tracker.devil-torrents.pl/announce120
http://tracker2.wasabii.com.tw:6969/announce120
udp://tracker.mg64.net:2710/announce120
http://tracker.electro-torrent.pl/announce110
http://tracker.mg64.net:6881/announce101
http://retracker.krs-ix.ru/announce000
http://t1.pow7.com/announce
http://secure.pow7.com/announce
http://tracker.tfile.me/announce
http://pow7.com/announce
udp://tracker.publicbt.com:80/announce000
udp://tracker.openbittorrent.com:80/announce000
http://t2.pow7.com/announce000

Komentarze

Brak komentarzy!

Dodawanie komentarza
Komentujesz torrenta:
Księżniczka Łabędzi 3 - Skarb czarnoksiężnika *1998* [DVDRip.XviD] [Dubbing PL]

NAJCZĘŚCIEJ POBIERANE