Kategorie
Ranking
RSS
Programy

Statystyki
Użytkowników:
Zarejestrowanych wczoraj:
Zarejestrowanych dzisiaj:
Torrentów:
Dodanych wczoraj:
Dodanych dzisiaj:
Warezów:
Dodanych wczoraj:
Dodanych dzisiaj:
135,247
92
5
144,495
122
3
11,827
17
5
Ostatnie 30
Popularne
w Styczniu
==Torrent==
Kategoria: TV/Seriale » Sci-Fi


Dodał: Lukarusi
Data dodania:
2017-07-18 19:02:51
Rozmiar: 1.59 GB
Seedów: 9
Peerów: 0
Pobrano: 243 razy
Kondycja:






Salvation S01E01 - Pilot [720p.AMZN.WEBRip.x264.AC3] [Lektor PL]



produkcja: USA
gatunek: Sci-Fi, Thriller, Dramat
reżyseria: Kenneth Fink, Juan Carlos Fresnadillo, Stuart Gillard
scenariusz: Elizabeth Kruger, Craig Shapiro, Christina M. Walker
zdjęcia: Mark Willis, Dave Sheridan
muzyka: John Paesano
czas trwania: ok. 45 min.



Bohaterami serialu są absolwent MIT Liamie oraz miliarder Darius Tanz, którzy informują niską rangą pracownicę Pentagonu, że pewna planetoida jest na kursie kolizyjnym z Ziemią. Do zderzenia ma dojść za pół roku.



Ian Anthony Dale - Harris Edwards
Santiago Cabrera - Darius Tanz
Jennifer Finnigan - Grace Barrows
Dennis Boutsikaris - Dr. Malcom Croft
Charlie Rowe - Liam Cole
Aaron Poole - Lazlo Simms
Kyle Alcock - Tanz employee
Lovina Yavari - Naomi



Format : Matroska
Format version : Version 4 / Version 2
File size : 1.59 GiB
Duration : 44mn 59s
Overall bit rate : 5 046 Kbps
Encoded date : UTC 2017-07-18 16:26:03

Video
ID : 1
Format : AVC
Format/Info : Advanced Video Codec
Format profile : High@L4.1
Format settings, CABAC : Yes
Format settings, ReFrames : 9 frames
Codec ID : V_MPEG4/ISO/AVC
Duration : 44mn 59s
Bit rate : 4 562 Kbps
Width : 1 280 pixels
Height : 720 pixels
Display aspect ratio : 16:9
Frame rate mode : Constant
Frame rate : 23.976 fps
Color space : YUV
Chroma subsampling : 4:2:0
Bit depth : 8 bits
Scan type : Progressive
Bits/(Pixel*Frame) : 0.206
Stream size : 1.43 GiB (90%)
Writing library : x264 core 148

Audio
ID : 2
Format : AC-3
Format/Info : Audio Coding 3
Mode extension : CM (complete main)
Format settings, Endianness : Big
Codec ID : A_AC3
Duration : 44mn 59s
Bit rate mode : Constant
Bit rate : 384 Kbps
Channel(s) : 2 channels
Channel positions : Front: L R
Sampling rate : 48.0 KHz
Bit depth : 16 bits
Compression mode : Lossy
Stream size : 124 MiB (8%)
Language : Polish

Lista plików Show/Hide [Pokaż/Ukryj]
Trackery
Tracker URLSeedówPeerówPobrań
udp://tracker.openbittorrent.com:80/announce308091
udp://sugoi.pomf.se:80/announce308091
udp://tracker.pomf.se:80/announce308091
http://tracker.filetracker.pl:8089/announce000
udp://shadowshq.eddie4.nl:6969/announce000
udp://poloniumsurfer.tk:6969/announce000
udp://torrent.gresille.org:80/announce000
udp://eddie4.nl:6969/announce000
udp://tracker.glotorrents.com:6969/announce000
http://tracker.tfile.me/announce000
http://mgtracker.org:2710/announce000
http://retracker.omsk.ru:2710/announce000
http://agusiq-torrents.pl:6969/announce000
udp://9.rarbg.me:2740/announce000
udp://tracker.leechers-paradise.org:6969/announce000
udp://exodus.desync.com:6969/announce000
udp://tracker.istole.it:80/announce000
udp://tracker.prq.to/announce000
udp://tracker.torrentbay.to:6969/announce000
udp://t1.pow7.com/announce000
udp://9.rarbg.com:2710/announce000
udp://tracker.publicbt.com/announce000
http://tracker.torrentyorg.pl/announce000
udp://10.rarbg.com/announce000

Komentarze

Brak komentarzy!

Dodawanie komentarza
Komentujesz torrenta:
Salvation S01E01 - Pilot [720p.AMZN.WEBRip.x264.AC3] [Lektor PL]

NAJCZĘŚCIEJ POBIERANE