Kategorie
Ranking
RSS
Programy

Statystyki
Użytkowników:
Zarejestrowanych wczoraj:
Zarejestrowanych dzisiaj:
Torrentów:
Dodanych wczoraj:
Dodanych dzisiaj:
Warezów:
Dodanych wczoraj:
Dodanych dzisiaj:
131,886
41
60
139,069
111
60
11,052
20
21
Ostatnie 30
Popularne
w Grudniu
==Torrent==
Kategoria: Anime » Anime


Dodał: mangas
Data dodania:
2017-09-10 21:27:50
Rozmiar: 1.71 GB
Seedów: 560
Peerów: 7
Pobrano: 34 razy
Kondycja:






Kimi no Na wa. (2016) [720p] [BluRay] [x264] [AAC] [Ohys-Raws]



Gatunek filmu: Dramat, Tajemnica, Nadprzyrodzone, Romans, Szkolne, Anime
Kraj produkcji: Japonia
Data premiery: 2016
Czas trwania: 106min.
Reżyseria: Makoto Shinkai



Historia rozgrywa się wokół dwójki głównych bohaterów. Pierwszą z nich jest Mitsuha – uczennica liceum, spędzająca swoje życie w niezbyt dużej wiosce wraz z młodszą siostrą i babcią. Dziewczyna jest bardzo uczciwa i rzetelna, jednak nie znosi zwyczajów swojej rodziny, nie wspominając o ojcu, który jest politykiem i przez zbliżające się wybory praktycznie nie widuje się ze swoimi córkami. Największym marzeniem Mitsuhy jest skosztowanie życia w Tokio. Drugim z bohaterów jest Taki, licealista żyjący w samym centrum stolicy, zafascynowany architekturą i sztukami pięknymi. W wolnym czasie spotyka się ze znajomymi i pracuje w włoskiej restauracji. Pewnego dnia Mitsuha ma sen o byciu młodym chłopakiem. Taki również ma sen o byciu dziewczyną w małej wiosce w górach, w której nigdy nie był. Jaki jest sekret ich snów i doświadczeń?
Link do napisów w języku polskim, poniżej.



Miyamizu, Mitsuha - Kamishiraishi, Mone
Tachibana, Taki - Kamiki, Ryunosuke
Yukino, Yukari - Hanazawa, Kana
Okudera, Miki - Nagasawa, Masami



Format : MPEG-4
File size : 1.71 GiB
Duration : 1 h 46 min
Overall bit rate mode : Variable
Overall bit rate : 2 291 kb/s

Video
ID : 1
Format : AVC
Format/Info : Advanced Video Codec
Format profile : Main@L4.1
Format settings, CABAC : Yes
Format settings, RefFrames : 4 frames
Codec ID : avc1
Codec ID/Info : Advanced Video Coding
Duration : 1 h 46 min
Bit rate : 2 084 kb/s
Maximum bit rate : 16.9 Mb/s
Width : 1 280 pixels
Height : 720 pixels
Display aspect ratio : 16:9
Frame rate mode : Constant
Frame rate : 23.976 (24000/1001) FPS
Color space : YUV
Chroma subsampling : 4:2:0
Bit depth : 8 bits
Scan type : Progressive
Bits/(Pixel*Frame) : 0.094
Stream size : 1.55 GiB (91%)

Audio
ID : 2
Format : AAC
Format/Info : Advanced Audio Codec
Format profile : LC
Codec ID : 40
Duration : 1 h 46 min
Bit rate mode : Variable
Bit rate : 203 kb/s
Maximum bit rate : 271 kb/s
Channel(s) : 2 channels
Channel positions : Front: L R
Sampling rate : 48.0 kHz
Frame rate : 46.875 FPS (1024 SPF)
Compression mode : Lossy
Stream size : 155 MiB (9%)
Language : Japanese


Napisy PL dostępne pod adresem: http://animesub.info/szukaj.php?ID=62668

Lista plików Show/Hide [Pokaż/Ukryj]
Trackery
Tracker URLSeedówPeerówPobrań
http://rutracker.ohys.net:80/announce1342116
http://nyaa.tracker.wf:7777/announce13120
http://tracker.anirena.com:80/announce103162799
udp://tracker.coppersurfer.tk:6969/announce97116705
udp://tracker.zer0day.to:1337/announce951423

Komentarze

Brak komentarzy!

Dodawanie komentarza
Komentujesz torrenta:
Kimi no Na wa. (2016) [720p] [BluRay] [x264] [AAC] [Ohys-Raws]

NAJCZĘŚCIEJ POBIERANE